×

¿Problemas para descargar con Mozilla, EDGE? Deshabilita la opción "Abrir vinculos en una pestaña nueva" tal como lo muestra ésta imagen.

La Ladrona De Libros (2013) REMUX 1080p Latino

295 vistas

Información de La Ladrona De Libros (2013) REMUX 1080p Latino

Datos de la película

  • Calidad: Full 1080p
  • Audio: Español Latino AC3 5.1 BLURAY - Ingles DTS 5.1 BLURAY
  • Subtitulos: Español Latino PGS - Ingles PGS
  • Resolución: 1920x1080p
  • Formato: MKV
  • Codec: H.264
  • Encoder: CinefiloCool
  • Mediainfo: Clic para Mostrar Datos Ver
  • La Ladrona De Libros (2013) REMUX 1080p Latino-CMHDD.mkv
    Format                      : Matroska
    Format version              : Version 4
    File size                   : 26.3 GiB
    Duration                    : 2 h 10 min
    Overall bit rate mode       : Variable
    Overall bit rate            : 28.7 Mb/s
    Movie name                  : The Book Thief (2013) CinemaniaHDD.Net
    Encoded date                : UTC 2020-05-10 08:09:23
    Writing application         : mkvmerge v46.0.0 ('No Deeper Escape') 64-bit
    Writing library             : libebml v1.3.10 + libmatroska v1.5.2
    Attachments                 : CINEMANIAHD.png

    Video
    ID                          : 1
    Format                      : AVC
    Format/Info                 : Advanced Video Codec
    Format profile              : High@L4.1
    Format settings             : CABAC / 4 Ref Frames
    Format settings, CABAC      : Yes
    Format settings, Reference  : 4 frames
    Codec ID                    : V_MPEG4/ISO/AVC
    Duration                    : 2 h 10 min
    Bit rate mode               : Variable
    Bit rate                    : 24.5 Mb/s
    Maximum bit rate            : 33.5 Mb/s
    Width                       : 1 920 pixels
    Height                      : 1 080 pixels
    Display aspect ratio        : 16:9
    Frame rate mode             : Constant
    Frame rate                  : 23.976 (24000/1001) FPS
    Color space                 : YUV
    Chroma subsampling          : 4:2:0
    Bit depth                   : 8 bits
    Scan type                   : Progressive
    Bits/(Pixel*Frame)          : 0.494
    Stream size                 : 22.5 GiB (85%)
    Title                       : REMUX 1080p [CinemaniaHDD]
    Default                     : Yes
    Forced                      : Yes

    Audio #1
    ID                          : 2
    Format                      : AC-3
    Format/Info                 : Audio Coding 3
    Commercial name             : Dolby Digital
    Codec ID                    : A_AC3
    Duration                    : 2 h 10 min
    Bit rate mode               : Constant
    Bit rate                    : 448 kb/s
    Channel(s)                  : 6 channels
    Channel layout              : L R C LFE Ls Rs
    Sampling rate               : 48.0 kHz
    Frame rate                  : 31.250 FPS (1536 SPF)
    Compression mode            : Lossy
    Stream size                 : 420 MiB (2%)
    Title                       : Español Latino [CinemaniaHDD]
    Language                    : Spanish
    Service kind                : Complete Main
    Default                     : Yes
    Forced                      : Yes

    Audio #2
    ID                          : 3
    Format                      : DTS XLL
    Format/Info                 : Digital Theater Systems
    Commercial name             : DTS-HD Master Audio
    Codec ID                    : A_DTS
    Duration                    : 2 h 10 min
    Bit rate mode               : Variable
    Bit rate                    : 3 696 kb/s
    Channel(s)                  : 6 channels
    Channel layout              : C L R Ls Rs LFE
    Sampling rate               : 48.0 kHz
    Frame rate                  : 93.750 FPS (512 SPF)
    Bit depth                   : 24 bits
    Compression mode            : Lossless
    Stream size                 : 3.38 GiB (13%)
    Title                       : Ingles [CinemaniaHDD]
    Language                    : English
    Default                     : No
    Forced                      : No

    Text #1
    ID                          : 4
    Format                      : PGS
    Muxing mode                 : zlib
    Codec ID                    : S_HDMV/PGS
    Codec ID/Info               : Picture based subtitle format used on BDs/HD-DVDs
    Duration                    : 2 h 8 min
    Bit rate                    : 889 b/s
    Count of elements           : 70
    Stream size                 : 834 KiB (0%)
    Title                       : Forzados-PGS [CinemaniaHDD]
    Language                    : Spanish
    Default                     : Yes
    Forced                      : Yes

    Text #2
    ID                          : 5
    Format                      : PGS
    Muxing mode                 : zlib
    Codec ID                    : S_HDMV/PGS
    Codec ID/Info               : Picture based subtitle format used on BDs/HD-DVDs
    Duration                    : 2 h 10 min
    Bit rate                    : 21.2 kb/s
    Count of elements           : 2542
    Stream size                 : 19.8 MiB (0%)
    Title                       : Español-PGS [CinemaniaHDD]
    Language                    : Spanish
    Default                     : No
    Forced                      : No

    Text #3
    ID                          : 6
    Format                      : PGS
    Muxing mode                 : zlib
    Codec ID                    : S_HDMV/PGS
    Codec ID/Info               : Picture based subtitle format used on BDs/HD-DVDs
    Duration                    : 2 h 4 min
    Bit rate                    : 25.5 kb/s
    Count of elements           : 2858
    Stream size                 : 22.7 MiB (0%)
    Title                       : Ingles-PGS [CinemaniaHDD]
    Language                    : English
    Default                     : No
    Forced                      : No

    Text #4
    ID                          : 7
    Format                      : UTF-8
    Codec ID                    : S_TEXT/UTF8
    Codec ID/Info               : UTF-8 Plain Text
    Duration                    : 26 min 10 s
    Bit rate                    : 6 b/s
    Count of elements           : 33
    Stream size                 : 1.30 KiB (0%)
    Title                       : Forzados-SRT [CinemaniaHDD]
    Language                    : Spanish
    Default                     : No
    Forced                      : No

    Text #5
    ID                          : 8
    Format                      : UTF-8
    Codec ID                    : S_TEXT/UTF8
    Codec ID/Info               : UTF-8 Plain Text
    Duration                    : 2 h 4 min
    Bit rate                    : 36 b/s
    Count of elements           : 1269
    Stream size                 : 33.0 KiB (0%)
    Title                       : Español-SRT [CinemaniaHDD]
    Language                    : Spanish
    Default                     : No
    Forced                      : No

    Menu
    00:00:00.000                : en:Chapter 01
    00:03:50.230                : en:Chapter 02
    00:07:58.061                : en:Chapter 03
    00:10:27.126                : en:Chapter 04
    00:13:42.405                : en:Chapter 05
    00:17:54.949                : en:Chapter 06
    00:20:17.591                : en:Chapter 07
    00:23:01.380                : en:Chapter 08
    00:24:57.746                : en:Chapter 09
    00:26:58.158                : en:Chapter 10
    00:30:54.811                : en:Chapter 11
    00:34:01.164                : en:Chapter 12
    00:39:21.859                : en:Chapter 13
    00:43:00.870                : en:Chapter 14
    00:45:09.999                : en:Chapter 15
    00:50:59.056                : en:Chapter 16
    00:52:18.761                : en:Chapter 17
    00:54:55.709                : en:Chapter 18
    00:59:04.624                : en:Chapter 19
    01:02:16.232                : en:Chapter 20
    01:05:43.523                : en:Chapter 21
    01:08:20.513                : en:Chapter 22
    01:12:41.983                : en:Chapter 23
    01:18:14.857                : en:Chapter 24
    01:23:50.025                : en:Chapter 25
    01:27:59.399                : en:Chapter 26
    01:30:46.274                : en:Chapter 27
    01:36:25.405                : en:Chapter 28
    01:40:48.584                : en:Chapter 29
    01:43:54.812                : en:Chapter 30
    01:47:24.104                : en:Chapter 31
    01:49:38.405                : en:Chapter 32
    01:54:24.274                : en:Chapter 33
    02:02:10.949                : en:Chapter 34
    02:03:13.386                : en:Chapter 35
    02:05:21.514                : en:Chapter 36

  • Peso: 26.3 GiB

Sinopsis

Descargar La Ladrona De Libros (2013) REMUX 1080p Latino. La novela de 550 páginas de la Segunda Guerra Mundial, narrada por la muerte, cuenta la historia de una animosa y valerosa jovencita llamada Liesel, que transforma las vidas de todas las personas de su entorno cuando la envían a vivir con una familia de acogida en la Alemania de la II Guerra Mundial. Para Liesel, el poder de las palabras y de la imaginación se convierte en una forma de escapar de los tumultuosos eventos que la rodean, tanto a ella como a toda la gente que conoce y quiere.

Ficha técnica

Video trailer de la película

Enlaces de descarga

Rip de Bluray

Descargar La Ladrona De Libros (2013) REMUX 1080p Latino




Aportes de DPeliculasHDmega la pass es:dpeliculashdmega.org Aportes de CinemaniaHD la pass es:cinemaniahdd.com
Guardado en : Drama , Historia , Remux

Películas relacionadas

descargar La Ladrona De Libros (2013) REMUX 1080p Latino Full 1080p 1080p gratis, La Ladrona De Libros (2013) REMUX 1080p Latino Full 1080p mega 1 link, La Ladrona De Libros (2013) REMUX 1080p Latino Full 1080p pelicula completa, descargar La Ladrona De Libros (2013) REMUX 1080p Latino Full 1080p gratis en mega.

La Ladrona De Libros (2013) REMUX 1080p Latino pelicula full hd, La Ladrona De Libros (2013) REMUX 1080p Latino mega latino, La Ladrona De Libros (2013) REMUX 1080p Latino 4k latino, La Ladrona De Libros (2013) REMUX 1080p Latino pelicula completa, La Ladrona De Libros (2013) REMUX 1080p Latino descargar gratis, descargar La Ladrona De Libros (2013) REMUX 1080p Latino pelicula latino, La Ladrona De Libros (2013) REMUX 1080p Latino 1 link mega, La Ladrona De Libros (2013) REMUX 1080p Latino 1 link google drive, La Ladrona De Libros (2013) REMUX 1080p Latino hd 1080p latino.
Comentarios 0