×

¿Problemas para descargar con Mozilla, EDGE? Deshabilita la opción "Abrir vinculos en una pestaña nueva" tal como lo muestra ésta imagen.

The Book Thief (2013) [Open Matte] WEB-DL 1080p Latino

314 vistas

Información de The Book Thief (2013) [Open Matte] WEB-DL 1080p Latino

Datos de la película

  • Calidad: 1080p
  • Audio: Español Latino AC3 5.1 WEB-DL - Ingles AC3 5.1 WEB-DL
  • Subtitulos: Español Latino SRT- FORZADOS SRT
  • Resolución: 1920x1080
  • Formato: MKV
  • Codec: H.264
  • Encoder: cinemaniahdd
  • Mediainfo: Clic para Mostrar Datos Ver
  • The Book Thief (2013) [Open Matte] WEB-DL 1080p Latino [CNMNHDD].mkv Format                      : Matroska Format version              : Version 4 File size                   : 5.33 GiB Duration                    : 2 h 5 min Overall bit rate            : 6 064 kb/s Movie name                  : La ladrona de libros (2013) - Open Matte [1080p] - CinemaniaHDD.Net Encoded date                : UTC 2023-02-05 01:27:30 Writing application         : mkvmerge v56.1.0 ('My Friend') 64-bit Writing library             : libebml v1.4.2 + libmatroska v1.6.4 Video ID                          : 1 Format                      : AVC Format/Info                 : Advanced Video Codec Format profile              : High@L4 Format settings             : CABAC / 3 Ref Frames Format settings, CABAC      : Yes Format settings, Reference  : 3 frames Codec ID                    : V_MPEG4/ISO/AVC Duration                    : 2 h 5 min Bit rate                    : 5 040 kb/s Width                       : 1 920 pixels Height                      : 1 080 pixels Display aspect ratio        : 16:9 Frame rate mode             : Constant Frame rate                  : 25.000 FPS Color space                 : YUV Chroma subsampling          : 4:2:0 Bit depth                   : 8 bits Scan type                   : Progressive Bits/(Pixel*Frame)          : 0.097 Stream size                 : 4.43 GiB (83%) Title                       : CinemaniaHDD Default                     : Yes Forced                      : No Audio #1 ID                          : 2 Format                      : AC-3 Format/Info                 : Audio Coding 3 Commercial name             : Dolby Digital Codec ID                    : A_AC3 Duration                    : 2 h 5 min Bit rate mode               : Constant Bit rate                    : 384 kb/s Channel(s)                  : 6 channels Channel layout              : L R C LFE Ls Rs Sampling rate               : 48.0 kHz Frame rate                  : 31.250 FPS (1536 SPF) Compression mode            : Lossy Stream size                 : 345 MiB (6%) Title                       : Español latino [CinemaniaHDD] Language                    : Spanish Service kind                : Complete Main Default                     : Yes Forced                      : No Audio #2 ID                          : 3 Format                      : E-AC-3 Format/Info                 : Enhanced AC-3 Commercial name             : Dolby Digital Plus Codec ID                    : A_EAC3 Duration                    : 2 h 5 min Bit rate mode               : Constant Bit rate                    : 640 kb/s Channel(s)                  : 6 channels Channel layout              : L R C LFE Ls Rs Sampling rate               : 48.0 kHz Frame rate                  : 31.250 FPS (1536 SPF) Compression mode            : Lossy Stream size                 : 575 MiB (11%) Title                       : Inglés [CinemaniaHDD] Language                    : English Service kind                : Complete Main Default                     : No Forced                      : No Text #1 ID                          : 4 Format                      : UTF-8 Codec ID                    : S_TEXT/UTF8 Codec ID/Info               : UTF-8 Plain Text Duration                    : 25 min 5 s Bit rate                    : 7 b/s Count of elements           : 33 Stream size                 : 1.29 KiB (0%) Title                       : Forzados [CinemaniaHDD] Language                    : Spanish Default                     : Yes Forced                      : Yes Text #2 ID                          : 5 Format                      : UTF-8 Codec ID                    : S_TEXT/UTF8 Codec ID/Info               : UTF-8 Plain Text Duration                    : 2 h 4 min Bit rate                    : 36 b/s Count of elements           : 1296 Stream size                 : 33.4 KiB (0%) Title                       : Español latino [CinemaniaHDD] Language                    : Spanish Default                     : No Forced                      : No Text #3 ID                          : 6 Format                      : UTF-8 Codec ID                    : S_TEXT/UTF8 Codec ID/Info               : UTF-8 Plain Text Duration                    : 2 h 4 min Bit rate                    : 42 b/s Count of elements           : 1843 Stream size                 : 38.5 KiB (0%) Title                       : Inglés [CinemaniaHDD] Language                    : English Default                     : No Forced                      : No Menu 00:00:00.000                : Chapter 01 00:03:40.709                : Chapter 02 00:07:38.389                : Chapter 03 00:10:01.348                : Chapter 04 00:13:08.629                : Chapter 05 00:17:10.829                : Chapter 06 00:19:27.628                : Chapter 07 00:22:04.708                : Chapter 08 00:23:56.308                : Chapter 09 00:25:51.788                : Chapter 10 00:29:38.747                : Chapter 11 00:32:37.467                : Chapter 12 00:37:45.027                : Chapter 13 00:41:15.067                : Chapter 14 00:43:18.907                : Chapter 15 00:48:53.667                : Chapter 16 00:50:10.107                : Chapter 17 00:52:40.626                : Chapter 18 00:56:39.346                : Chapter 19 00:59:43.105                : Chapter 20 01:03:00.986                : Chapter 21 01:05:32.465                : Chapter 22 01:09:43.226                : Chapter 23 01:15:02.465                : Chapter 24 01:20:23.905                : Chapter 25 01:24:23.064                : Chapter 26 01:27:03.104                : Chapter 27 01:32:28.344                : Chapter 28 01:36:40.743                : Chapter 29 01:39:39.344                : Chapter 30 01:43:00.063                : Chapter 31 01:45:08.863                : Chapter 32 01:49:43.023                : Chapter 33 01:57:10.583                : Chapter 34 01:58:10.462                : Chapter 35 02:00:13.342                : Chapter 36  
  • Peso: 5.33 GiB

Sinopsis

La novela de 550 páginas de la Segunda Guerra Mundial, narrada por la muerte, cuenta la historia de Liesel Memminger desde el momento en que es acogida con nueve años por una familia trabajadora alemana en el barrio obrero justo después de haber robado su primer libro.

Ficha técnica

Video trailer de la película

Enlaces de descarga

Rip de Bluray

Descargar The Book Thief (2013) [Open Matte] WEB-DL 1080p Latino




Aportes de DPeliculasHDmega la pass es:dpeliculashdmega.org Aportes de CinemaniaHD la pass es:cinemaniahdd.com Aportes recientes:cinemaniahdd.net
Guardado en : Drama , OPEN MATTE

Películas relacionadas

  • Milagros Inesperados (1999) 1080p Latino-CMHDD

    Milagros Inesperados (1999) 1080p Latino-CMHDD

    1999
    Milagros Inesperados (1999) 1080p Latino-CMHDD

    3h 9m 1999

    Descargar Milagros Inesperados (1999) 1080p Latino-CMHDD. En el sur de los Estados Unidos, en plena Depresión,...

    Director: Susan Malerstein

    Género: Crimen

    Actores: William Sadler

  • Milagros Inesperados (1999) REMUX 1080p Latino-CMHDD

    Milagros Inesperados (1999) REMUX 1080p Latino-CMHDD

    1999
    Milagros Inesperados (1999) REMUX 1080p Latino-CMHDD

    3h 9m 1999

    Descargar Milagros Inesperados (1999) REMUX 1080p Latino-CMHDD. En el sur de los Estados Unidos, en plena...

    Director: Susan Malerstein

    Género: Crimen

    Actores: William Sadler

descargar The Book Thief (2013) [Open Matte] WEB-DL 1080p Latino 1080p 1080p gratis, The Book Thief (2013) [Open Matte] WEB-DL 1080p Latino 1080p mega 1 link, The Book Thief (2013) [Open Matte] WEB-DL 1080p Latino 1080p pelicula completa, descargar The Book Thief (2013) [Open Matte] WEB-DL 1080p Latino 1080p gratis en mega.

The Book Thief (2013) [Open Matte] WEB-DL 1080p Latino pelicula full hd, The Book Thief (2013) [Open Matte] WEB-DL 1080p Latino mega latino, The Book Thief (2013) [Open Matte] WEB-DL 1080p Latino 4k latino, The Book Thief (2013) [Open Matte] WEB-DL 1080p Latino pelicula completa, The Book Thief (2013) [Open Matte] WEB-DL 1080p Latino descargar gratis, descargar The Book Thief (2013) [Open Matte] WEB-DL 1080p Latino pelicula latino, The Book Thief (2013) [Open Matte] WEB-DL 1080p Latino 1 link mega, The Book Thief (2013) [Open Matte] WEB-DL 1080p Latino 1 link google drive, The Book Thief (2013) [Open Matte] WEB-DL 1080p Latino hd 1080p latino.
Comentarios 0