El Coleccionista De Huesos (1999) REMUX 1080p Latino

7 vistas
1 estrella2 estrellas3 estrellas4 estrellas5 estrellas (Ninguna valoración todavía)
Cargando...

Información de El Coleccionista De Huesos (1999) REMUX 1080p Latino

Datos de la película

  • Calidad: Full 1080p
  • Audio: Se especifica abajo de la Sinopsis
  • Subtitulos: Español Latino PGS - Ingles PGS
  • Resolución: 1920x1080p
  • Formato: MKV
  • Codec: H.264
  • Encoder: CinefiloCool
  • Mediainfo: Clic para Mostrar Datos Ver
  • El Coleccionista De Huesos (1999) REMUX 1080p Latino-CMHDD.mkv
    Format                      : Matroska
    Format version              : Version 4
    File size                   : 24.3 GiB
    Duration                    : 1 h 57 min
    Overall bit rate mode       : Variable
    Overall bit rate            : 29.5 Mb/s
    Movie name                  : The Bone Collector (1999) CinemaniaHDD.Net
    Encoded date                : UTC 2021-04-12 08:43:25
    Writing application         : mkvmerge v51.0.0 ('I Wish') 64-bit
    Writing library             : libebml v1.4.0 + libmatroska v1.6.2
    Attachments                 : CINEMANIAHD.png

    Video
    ID                          : 1
    Format                      : AVC
    Format/Info                 : Advanced Video Codec
    Format profile              : High@L4.1
    Format settings             : CABAC / 2 Ref Frames
    Format settings, CABAC      : Yes
    Format settings, Reference  : 2 frames
    Codec ID                    : V_MPEG4/ISO/AVC
    Duration                    : 1 h 57 min
    Bit rate mode               : Variable
    Bit rate                    : 26.9 Mb/s
    Width                       : 1 920 pixels
    Height                      : 1 080 pixels
    Display aspect ratio        : 16:9
    Frame rate mode             : Constant
    Frame rate                  : 23.976 (24000/1001) FPS
    Color space                 : YUV
    Chroma subsampling          : 4:2:0
    Bit depth                   : 8 bits
    Scan type                   : Progressive
    Bits/(Pixel*Frame)          : 0.541
    Stream size                 : 22.2 GiB (91%)
    Title                       : REMUX HD1080p [CinemaniaHDD]
    Default                     : Yes
    Forced                      : No

    Audio #1
    ID                          : 2
    Format                      : AC-3
    Format/Info                 : Audio Coding 3
    Commercial name             : Dolby Digital
    Codec ID                    : A_AC3
    Duration                    : 1 h 57 min
    Bit rate mode               : Constant
    Bit rate                    : 448 kb/s
    Channel(s)                  : 6 channels
    Channel layout              : L R C LFE Ls Rs
    Sampling rate               : 48.0 kHz
    Frame rate                  : 31.250 FPS (1536 SPF)
    Compression mode            : Lossy
    Stream size                 : 378 MiB (2%)
    Title                       : Español Latino [CinemaniaHDD]
    Language                    : Spanish
    Service kind                : Complete Main
    Default                     : Yes
    Forced                      : No

    Audio #2
    ID                          : 3
    Format                      : MLP FBA
    Format/Info                 : Meridian Lossless Packing FBA
    Commercial name             : Dolby TrueHD
    Codec ID                    : A_TRUEHD
    Duration                    : 1 h 57 min
    Bit rate mode               : Variable
    Bit rate                    : 1 429 kb/s
    Maximum bit rate            : 3 465 kb/s
    Channel(s)                  : 6 channels
    Channel layout              : L R C LFE Ls Rs
    Sampling rate               : 48.0 kHz
    Frame rate                  : 1 200.000 FPS (40 SPF)
    Compression mode            : Lossless
    Stream size                 : 1.18 GiB (5%)
    Title                       : Ingles THD [CinemaniaHDD]
    Language                    : English
    Default                     : No
    Forced                      : No

    Audio #3
    ID                          : 4
    Format                      : AC-3
    Format/Info                 : Audio Coding 3
    Commercial name             : Dolby Digital
    Codec ID                    : A_AC3
    Duration                    : 1 h 57 min
    Bit rate mode               : Constant
    Bit rate                    : 640 kb/s
    Channel(s)                  : 6 channels
    Channel layout              : L R C LFE Ls Rs
    Sampling rate               : 48.0 kHz
    Frame rate                  : 31.250 FPS (1536 SPF)
    Compression mode            : Lossy
    Stream size                 : 540 MiB (2%)
    Title                       : Ingles AC3 [CinemaniaHDD]
    Language                    : English
    Service kind                : Complete Main
    Default                     : No
    Forced                      : No

    Text #1
    ID                          : 5
    Format                      : PGS
    Muxing mode                 : zlib
    Codec ID                    : S_HDMV/PGS
    Codec ID/Info               : Picture based subtitle format used on BDs/HD-DVDs
    Duration                    : 1 h 50 min
    Bit rate                    : 21.2 kb/s
    Count of elements           : 2444
    Stream size                 : 16.8 MiB (0%)
    Title                       : Español-PGS [CinemaniaHDD]
    Language                    : Spanish
    Default                     : No
    Forced                      : No

    Text #2
    ID                          : 6
    Format                      : PGS
    Muxing mode                 : zlib
    Codec ID                    : S_HDMV/PGS
    Codec ID/Info               : Picture based subtitle format used on BDs/HD-DVDs
    Duration                    : 1 h 49 min
    Bit rate                    : 28.7 kb/s
    Count of elements           : 2498
    Stream size                 : 22.4 MiB (0%)
    Title                       : Ingles-PGS [CinemaniaHDD]
    Language                    : English
    Default                     : No
    Forced                      : No

    Text #3
    ID                          : 7
    Format                      : UTF-8
    Codec ID                    : S_TEXT/UTF8
    Codec ID/Info               : UTF-8 Plain Text
    Duration                    : 1 h 42 min
    Bit rate                    : 0 b/s
    Count of elements           : 19
    Stream size                 : 629 Bytes (0%)
    Title                       : Forzados-SRT [CinemaniaHDD]
    Language                    : Spanish
    Default                     : Yes
    Forced                      : No

    Text #4
    ID                          : 8
    Format                      : UTF-8
    Codec ID                    : S_TEXT/UTF8
    Codec ID/Info               : UTF-8 Plain Text
    Duration                    : 1 h 50 min
    Bit rate                    : 49 b/s
    Count of elements           : 1287
    Stream size                 : 40.4 KiB (0%)
    Title                       : Español-SRT [CinemaniaHDD]
    Language                    : Spanish
    Default                     : No
    Forced                      : No

    Menu
    00:00:00.000                : en:Chapter 1
    00:03:43.056                : en:Chapter 2
    00:07:31.742                : en:Chapter 3
    00:14:31.203                : en:Chapter 4
    00:25:27.192                : en:Chapter 5
    00:30:03.968                : en:Chapter 6
    00:43:47.041                : en:Chapter 7
    00:53:47.599                : en:Chapter 8
    01:02:55.772                : en:Chapter 9
    01:09:14.692                : en:Chapter 10
    01:15:59.846                : en:Chapter 11
    01:25:41.678                : en:Chapter 12
    01:29:30.406                : en:Chapter 13
    01:33:29.353                : en:Chapter 14
    01:41:57.569                : en:Chapter 15
    01:49:15.257                : en:Chapter 16

  • Peso: 24.3 GiB

Sinopsis

Descargar El Coleccionista De Huesos (1999) REMUX 1080p Latino. Lincoln Rhyme es un policía que está en silla de ruedas desde que le cayó una viga encima durante una investigación y lo dejó tetrapléjico. Un asesino en serie deja pistas que sólo Lincoln puede descrifrar, y éste contará con la ayuda de Amelia Donaghy para resolver el misterio creado por el asesino.

Audio Español Latino AC3 5.1 Bluray – Ingles TrueHD 5.1 + AC3 5.1 Bluray

Nota:
Proximamente Para Usuarios Free, Disponible solo para VIP!!!

Ficha técnica

Video trailer de la película

Enlaces de descarga

Rip de Bluray

Descargar El Coleccionista De Huesos (1999) REMUX 1080p Latino




Aportes de DPeliculasHDmega la pass es:dpeliculashdmega.org Aportes de CinemaniaHD la pass es:cinemaniahdd.com
Guardado en : Crimen , Drama , Misterio , Remux , Suspenso

Películas relacionadas

El Coleccionista De Huesos (1999) REMUX 1080p Latino pelicula full hd, El Coleccionista De Huesos (1999) REMUX 1080p Latino mega latino, El Coleccionista De Huesos (1999) REMUX 1080p Latino 4k latino, El Coleccionista De Huesos (1999) REMUX 1080p Latino pelicula completa, El Coleccionista De Huesos (1999) REMUX 1080p Latino descargar gratis, descargar El Coleccionista De Huesos (1999) REMUX 1080p Latino pelicula latino, El Coleccionista De Huesos (1999) REMUX 1080p Latino 1 link mega, El Coleccionista De Huesos (1999) REMUX 1080p Latino 1 link google drive, El Coleccionista De Huesos (1999) REMUX 1080p Latino hd 1080p latino.
Comentarios 0