El Coleccionista De Huesos (1999) 1080p Latino

8 vistas
1 estrella2 estrellas3 estrellas4 estrellas5 estrellas (Ninguna valoración todavía)
Cargando...

Información de El Coleccionista De Huesos (1999) 1080p Latino

Datos de la película

  • Calidad: 1080p
  • Audio: Español Latino AC3 5.1 BLURAY - Ingles AC3 5.1 BLURAY
  • Subtitulos: Español Latino SRT - Ingles SRT
  • Resolución: 1920x800p
  • Formato: MKV
  • Codec: H.264
  • Encoder: CinefiloCool
  • Mediainfo: Clic para Mostrar Datos Ver
  • El Coleccionista De Huesos (1999) 1080p Latino-CMHDD.mkv
    Format                      : Matroska
    Format version              : Version 4
    File size                   : 4.45 GiB
    Duration                    : 1 h 57 min
    Overall bit rate            : 5 398 kb/s
    Movie name                  : The Bone Collector (1999) CinemaniaHDD.Net
    Encoded date                : UTC 2021-07-06 16:47:51
    Writing application         : mkvmerge v56.1.0 ('My Friend') 64-bit
    Writing library             : libebml v1.4.2 + libmatroska v1.6.4
    Attachments                 : CINEMANIAHD.png

    Video
    ID                          : 1
    Format                      : AVC
    Format/Info                 : Advanced Video Codec
    Format profile              : High@L4.1
    Format settings             : CABAC / 5 Ref Frames
    Format settings, CABAC      : Yes
    Format settings, Reference  : 5 frames
    Codec ID                    : V_MPEG4/ISO/AVC
    Duration                    : 1 h 57 min
    Bit rate                    : 4 500 kb/s
    Width                       : 1 920 pixels
    Height                      : 800 pixels
    Display aspect ratio        : 2.40:1
    Frame rate mode             : Constant
    Frame rate                  : 23.976 (24000/1001) FPS
    Color space                 : YUV
    Chroma subsampling          : 4:2:0
    Bit depth                   : 8 bits
    Scan type                   : Progressive
    Bits/(Pixel*Frame)          : 0.122
    Stream size                 : 3.71 GiB (83%)
    Title                       : HD1080p [CinemaniaHDD]
    Writing library             : x264 core 157 r2935 545de2f
    Encoding settings           : cabac=1 / ref=5 / deblock=1:-2:-2 / analyse=0x3:0x133 / me=umh / subme=9 / psy=1 / psy_rd=1.00:0.25 / mixed_ref=1 / me_range=16 / chroma_me=1 / trellis=2 / 8x8dct=1 / cqm=0 / deadzone=6,6 / fast_pskip=1 / chroma_qp_offset=-4 / threads=24 / lookahead_threads=2 / sliced_threads=0 / nr=0 / decimate=0 / interlaced=0 / bluray_compat=0 / constrained_intra=0 / bframes=3 / b_pyramid=2 / b_adapt=2 / b_bias=0 / direct=3 / weightb=1 / open_gop=0 / weightp=2 / keyint=240 / keyint_min=24 / scenecut=40 / intra_refresh=0 / rc_lookahead=60 / rc=2pass / mbtree=1 / bitrate=4500 / ratetol=1.0 / qcomp=0.80 / qpmin=0 / qpmax=69 / qpstep=4 / cplxblur=20.0 / qblur=0.5 / vbv_maxrate=62500 / vbv_bufsize=78125 / nal_hrd=none / filler=0 / ip_ratio=1.10 / aq=1:0.50
    Default                     : Yes
    Forced                      : Yes
    Color range                 : Limited
    Color primaries             : BT.709
    Transfer characteristics    : BT.709
    Matrix coefficients         : BT.709

    Audio #1
    ID                          : 2
    Format                      : AC-3
    Format/Info                 : Audio Coding 3
    Commercial name             : Dolby Digital
    Codec ID                    : A_AC3
    Duration                    : 1 h 57 min
    Bit rate mode               : Constant
    Bit rate                    : 448 kb/s
    Channel(s)                  : 6 channels
    Channel layout              : L R C LFE Ls Rs
    Sampling rate               : 48.0 kHz
    Frame rate                  : 31.250 FPS (1536 SPF)
    Compression mode            : Lossy
    Delay relative to video     : -5 ms
    Stream size                 : 378 MiB (8%)
    Title                       : Español Latino [CinemaniaHDD]
    Language                    : Spanish
    Service kind                : Complete Main
    Default                     : Yes
    Forced                      : Yes

    Audio #2
    ID                          : 3
    Format                      : AC-3
    Format/Info                 : Audio Coding 3
    Commercial name             : Dolby Digital
    Codec ID                    : A_AC3
    Duration                    : 1 h 57 min
    Bit rate mode               : Constant
    Bit rate                    : 448 kb/s
    Channel(s)                  : 6 channels
    Channel layout              : L R C LFE Ls Rs
    Sampling rate               : 48.0 kHz
    Frame rate                  : 31.250 FPS (1536 SPF)
    Compression mode            : Lossy
    Delay relative to video     : -5 ms
    Stream size                 : 378 MiB (8%)
    Title                       : Ingles [CinemaniaHDD]
    Language                    : English
    Service kind                : Complete Main
    Default                     : No
    Forced                      : No

    Text #1
    ID                          : 4
    Format                      : UTF-8
    Codec ID                    : S_TEXT/UTF8
    Codec ID/Info               : UTF-8 Plain Text
    Duration                    : 1 h 42 min
    Bit rate                    : 0 b/s
    Count of elements           : 19
    Stream size                 : 629 Bytes (0%)
    Title                       : Forzados-SRT [CinemaniaHDD]
    Language                    : Spanish
    Default                     : Yes
    Forced                      : Yes

    Text #2
    ID                          : 5
    Format                      : UTF-8
    Codec ID                    : S_TEXT/UTF8
    Codec ID/Info               : UTF-8 Plain Text
    Duration                    : 1 h 50 min
    Bit rate                    : 49 b/s
    Count of elements           : 1287
    Stream size                 : 40.4 KiB (0%)
    Title                       : Español-SRT [CinemaniaHDD]
    Language                    : Spanish
    Default                     : No
    Forced                      : No

    Text #3
    ID                          : 6
    Format                      : UTF-8
    Codec ID                    : S_TEXT/UTF8
    Codec ID/Info               : UTF-8 Plain Text
    Duration                    : 1 h 52 min
    Bit rate                    : 58 b/s
    Count of elements           : 1269
    Stream size                 : 48.4 KiB (0%)
    Title                       : Ingles-SRT [CinemaniaHDD]
    Language                    : English
    Default                     : No
    Forced                      : No

    Menu
    00:00:00.000                : Chapter 1
    00:03:43.056                : Chapter 2
    00:07:31.742                : Chapter 3
    00:14:31.203                : Chapter 4
    00:25:27.192                : Chapter 5
    00:30:03.968                : Chapter 6
    00:43:47.041                : Chapter 7
    00:53:47.599                : Chapter 8
    01:02:55.772                : Chapter 9
    01:09:14.692                : Chapter 10
    01:15:59.846                : Chapter 11
    01:25:41.678                : Chapter 12
    01:29:30.406                : Chapter 13
    01:33:29.353                : Chapter 14
    01:41:57.569                : Chapter 15
    01:49:15.257                : Chapter 16

  • Peso: 4.45 GiB

Sinopsis

Descargar El Coleccionista De Huesos (1999) 1080p Latino. Lincoln Rhyme es un policía que está en silla de ruedas desde que le cayó una viga encima durante una investigación y lo dejó tetrapléjico. Un asesino en serie deja pistas que sólo Lincoln puede descrifrar, y éste contará con la ayuda de Amelia Donaghy para resolver el misterio creado por el asesino.

Ficha técnica

Video trailer de la película

Enlaces de descarga

Rip de Bluray

Descargar El Coleccionista De Huesos (1999) 1080p Latino




Aportes de DPeliculasHDmega la pass es:dpeliculashdmega.org Aportes de CinemaniaHD la pass es:cinemaniahdd.com
Guardado en : Crimen , Drama , HD 1080p , Misterio , Suspenso

Películas relacionadas

  • En liberté! (2018) WEB-DL 1080p Latino

    En liberté! (2018) WEB-DL 1080p Latino

    2018
    En liberté! (2018) WEB-DL 1080p Latino

    5.0 1h 48m 2018

    El detective Yvonne es la viuda del jefe de policía Santi, un héroe local en un pueblo de la Riviera...

    Director: Pierre Salvadori

    Género: Comedia

    Actores: Vincent Elbaz

  • The Hatred (2017) WEB-DL 1080p Latino

    The Hatred (2017) WEB-DL 1080p Latino

    2017
    The Hatred (2017) WEB-DL 1080p Latino

    5.0 1h 34m 2017

    Cuatro mujeres jóvenes viajan a la nueva casa de campo de su profesor universitario para una escapada...

    Director: Michael G. Kehoe

    Género: Suspenso

    Actores: Tim DeZarn

  • S.W.A.T (2019) WEB-DL 1080p Latino

    S.W.A.T (2019) WEB-DL 1080p Latino

    2019
    S.W.A.T (2019) WEB-DL 1080p Latino

    5.0 0h 0m 2019

    Una Unidad de Fuerzas Especiales ha organizado una serie de ejercicios de combate para seleccionar a...

    Director: Ding Sheng

    Género: Acción

    Actores: Zhao Xiaorui

  • Servants of War (2019) WEB-DL 1080p Latino

    Servants of War (2019) WEB-DL 1080p Latino

    2019
    Servants of War (2019) WEB-DL 1080p Latino

    5.0 1h 38m 2019

    El conocido profesor Professor Jerzy Abramski es asesinado. De su investigación se encarga el inspector...

    Director: Mariusz Gawryś

    Género: Crimen

    Actores: Zbigniew Stryj

  • Submission (2019) WEB-DL 1080p Latino

    Submission (2019) WEB-DL 1080p Latino

    2019
    Submission (2019) WEB-DL 1080p Latino

    5.0 1h 34m 2019

    Después de que dos marines regresan a casa después de un interrogatorio de ISIS, uno lucha por sobrevivir...

    Director: J.M. Berrios

    Género: Drama

    Actores: Scott Pryor

El Coleccionista De Huesos (1999) 1080p Latino pelicula full hd, El Coleccionista De Huesos (1999) 1080p Latino mega latino, El Coleccionista De Huesos (1999) 1080p Latino 4k latino, El Coleccionista De Huesos (1999) 1080p Latino pelicula completa, El Coleccionista De Huesos (1999) 1080p Latino descargar gratis, descargar El Coleccionista De Huesos (1999) 1080p Latino pelicula latino, El Coleccionista De Huesos (1999) 1080p Latino 1 link mega, El Coleccionista De Huesos (1999) 1080p Latino 1 link google drive, El Coleccionista De Huesos (1999) 1080p Latino hd 1080p latino.
Comentarios 0