×

¿Problemas para descargar con Mozilla, EDGE? Deshabilita la opción "Abrir vinculos en una pestaña nueva" tal como lo muestra ésta imagen.

The Bodyguard (1992) 1080p Latino-CMHDD

49 vistas

Información de The Bodyguard (1992) 1080p Latino-CMHDD

Datos de la película

  • Calidad: 1080p
  • Audio: Español Latino AC3 2.0 BLURAY - Ingles AC3 5.1 BLURAY
  • Subtitulos: Español Latino SRT - Ingles SRT
  • Resolución: 1920x1080p
  • Formato: MKV
  • Codec: H.264
  • Encoder: CinefiloCool
  • Mediainfo: Clic para Mostrar Datos Ver
  • The.Bodyguard.1992.Bluray.1080p.x264.Latino-CC@CMHDD.mkv
    Format                      : Matroska
    Format version              : Version 4
    File size                   : 3.95 GiB
    Duration                    : 2 h 9 min
    Overall bit rate mode       : Variable
    Overall bit rate            : 4 372 kb/s
    Movie name                  : The Bodyguard (1992) CinemaniaHDD.Net
    Encoded date                : UTC 2024-02-27 21:46:41
    Writing application         : mkvmerge v56.1.0 ('My Friend') 64-bit
    Writing library             : libebml v1.4.2 + libmatroska v1.6.4
    Cover                       : Yes
    Attachments                 : cover.jpg / CINEMANIAHD.png

    Video
    ID                          : 1
    Format                      : AVC
    Format/Info                 : Advanced Video Codec
    Format profile              : High@L4.2
    Format settings             : CABAC / 4 Ref Frames
    Format settings, CABAC      : Yes
    Format settings, Reference  : 4 frames
    Codec ID                    : V_MPEG4/ISO/AVC
    Duration                    : 2 h 9 min
    Bit rate mode               : Variable
    Bit rate                    : 3 730 kb/s
    Width                       : 1 920 pixels
    Height                      : 1 080 pixels
    Display aspect ratio        : 16:9
    Frame rate mode             : Constant
    Frame rate                  : 23.976 (24000/1001) FPS
    Color space                 : YUV
    Chroma subsampling          : 4:2:0
    Bit depth                   : 8 bits
    Scan type                   : Progressive
    Bits/(Pixel*Frame)          : 0.075
    Stream size                 : 3.37 GiB (85%)
    Title                       : HD1080p [CinemaniaHDD]
    Writing library             : x264 core 163 r3059 b684ebe0
    Encoding settings           : cabac=1 / ref=4 / deblock=1:-2:-2 / analyse=0x3:0x133 / me=umh / subme=9 / psy=1 / psy_rd=1.00:0.25 / mixed_ref=1 / me_range=16 / chroma_me=1 / trellis=2 / 8x8dct=1 / cqm=0 / deadzone=6,6 / fast_pskip=1 / chroma_qp_offset=-4 / threads=24 / lookahead_threads=2 / sliced_threads=0 / nr=0 / decimate=0 / interlaced=0 / bluray_compat=0 / constrained_intra=0 / bframes=3 / b_pyramid=2 / b_adapt=2 / b_bias=0 / direct=3 / weightb=1 / open_gop=0 / weightp=2 / keyint=240 / keyint_min=24 / scenecut=40 / intra_refresh=0 / rc_lookahead=60 / rc=crf / mbtree=1 / crf=23.5 / qcomp=0.80 / qpmin=0 / qpmax=69 / qpstep=4 / vbv_maxrate=62500 / vbv_bufsize=78125 / crf_max=0.0 / nal_hrd=vbr / filler=0 / ip_ratio=1.10 / aq=1:0.50
    Default                     : Yes
    Forced                      : Yes
    Color range                 : Limited
    Color primaries             : BT.709
    Transfer characteristics    : BT.709
    Matrix coefficients         : BT.709

    Audio #1
    ID                          : 2
    ID in the original source m : 4358 (0x1106)
    Format                      : AC-3
    Format/Info                 : Audio Coding 3
    Commercial name             : Dolby Digital
    Format settings             : Dolby Surround
    Codec ID                    : A_AC3
    Duration                    : 2 h 9 min
    Bit rate mode               : Constant
    Bit rate                    : 192 kb/s
    Channel(s)                  : 2 channels
    Channel layout              : L R
    Sampling rate               : 48.0 kHz
    Frame rate                  : 31.250 FPS (1536 SPF)
    Compression mode            : Lossy
    Delay relative to video     : -5 ms
    Stream size                 : 178 MiB (4%)
    Title                       : Español Latino [CinemaniaHDD]
    Language                    : Spanish
    Service kind                : Complete Main
    Default                     : Yes
    Forced                      : Yes
    Original source medium      : Blu-ray

    Audio #2
    ID                          : 3
    Format                      : AC-3
    Format/Info                 : Audio Coding 3
    Commercial name             : Dolby Digital
    Codec ID                    : A_AC3
    Duration                    : 2 h 9 min
    Bit rate mode               : Constant
    Bit rate                    : 448 kb/s
    Channel(s)                  : 6 channels
    Channel layout              : L R C LFE Ls Rs
    Sampling rate               : 48.0 kHz
    Frame rate                  : 31.250 FPS (1536 SPF)
    Compression mode            : Lossy
    Delay relative to video     : -5 ms
    Stream size                 : 414 MiB (10%)
    Title                       : Ingles [CinemaniaHDD]
    Language                    : English
    Service kind                : Complete Main
    Default                     : No
    Forced                      : No

    Text #1
    ID                          : 4
    Format                      : UTF-8
    Codec ID                    : S_TEXT/UTF8
    Codec ID/Info               : UTF-8 Plain Text
    Duration                    : 1 h 55 min
    Bit rate                    : 0 b/s
    Count of elements           : 10
    Stream size                 : 257 Bytes (0%)
    Title                       : Forzados-SRT [CinemaniaHDD]
    Language                    : Spanish
    Default                     : Yes
    Forced                      : Yes

    Text #2
    ID                          : 5
    Format                      : UTF-8
    Codec ID                    : S_TEXT/UTF8
    Codec ID/Info               : UTF-8 Plain Text
    Duration                    : 2 h 8 min
    Bit rate                    : 41 b/s
    Count of elements           : 1175
    Stream size                 : 38.8 KiB (0%)
    Title                       : Español-SRT [CinemaniaHDD]
    Language                    : Spanish
    Default                     : No
    Forced                      : No

    Text #3
    ID                          : 6
    Format                      : UTF-8
    Codec ID                    : S_TEXT/UTF8
    Codec ID/Info               : UTF-8 Plain Text
    Duration                    : 2 h 3 min
    Bit rate                    : 39 b/s
    Count of elements           : 1232
    Stream size                 : 35.4 KiB (0%)
    Title                       : Ingles-SRT [CinemaniaHDD]
    Language                    : English
    Default                     : No
    Forced                      : No

    Menu
    00:00:00.000                : Chapter 01
    00:03:48.561                : Chapter 02
    00:05:22.363                : Chapter 03
    00:12:46.307                : Chapter 04
    00:17:19.246                : Chapter 05
    00:19:35.132                : Chapter 06
    00:23:45.424                : Chapter 07
    00:26:13.697                : Chapter 08
    00:30:11.476                : Chapter 09
    00:31:23.506                : Chapter 10
    00:35:30.753                : Chapter 11
    00:38:39.775                : Chapter 12
    00:42:08.067                : Chapter 13
    00:44:09.271                : Chapter 14
    00:46:35.667                : Chapter 15
    00:47:39.147                : Chapter 16
    00:51:51.691                : Chapter 17
    00:54:09.120                : Chapter 18
    01:01:46.077                : Chapter 19
    01:04:40.418                : Chapter 20
    01:11:01.966                : Chapter 21
    01:14:17.911                : Chapter 22
    01:17:41.114                : Chapter 23
    01:20:55.016                : Chapter 24
    01:26:19.757                : Chapter 25
    01:30:13.032                : Chapter 26
    01:34:01.010                : Chapter 27
    01:36:18.898                : Chapter 28
    01:37:12.117                : Chapter 29
    01:40:27.354                : Chapter 30
    01:43:40.464                : Chapter 31
    01:47:27.858                : Chapter 32
    01:48:43.808                : Chapter 33
    01:53:37.352                : Chapter 34
    01:56:02.956                : Chapter 35
    01:59:26.159                : Chapter 36
    02:00:54.580                : Chapter 37
    02:03:34.407                : Chapter 38

  • Peso: 3.95 GiB

Sinopsis

Descargar The Bodyguard (1992) 1080p Latino-CMHDD. Una cantante famosa que recibe constantes cartas anónimas con amenazas de muerte contrata a un guardaespaldas profesional para que la proteja. Sin embargo, la cantante no está de acuerdo con los métodos empleados por su protector.

Ficha técnica

Video trailer de la película

Enlaces de descarga

Rip de Bluray

Descargar The Bodyguard (1992) 1080p Latino-CMHDD




Aportes de DPeliculasHDmega la pass es:dpeliculashdmega.org Aportes de CinemaniaHD la pass es:cinemaniahdd.com Aportes recientes:cinemaniahdd.net
Guardado en : Acción , Drama , HD 1080p , Romance

Películas relacionadas

descargar The Bodyguard (1992) 1080p Latino-CMHDD 1080p 1080p gratis, The Bodyguard (1992) 1080p Latino-CMHDD 1080p mega 1 link, The Bodyguard (1992) 1080p Latino-CMHDD 1080p pelicula completa, descargar The Bodyguard (1992) 1080p Latino-CMHDD 1080p gratis en mega.

The Bodyguard (1992) 1080p Latino-CMHDD pelicula full hd, The Bodyguard (1992) 1080p Latino-CMHDD mega latino, The Bodyguard (1992) 1080p Latino-CMHDD 4k latino, The Bodyguard (1992) 1080p Latino-CMHDD pelicula completa, The Bodyguard (1992) 1080p Latino-CMHDD descargar gratis, descargar The Bodyguard (1992) 1080p Latino-CMHDD pelicula latino, The Bodyguard (1992) 1080p Latino-CMHDD 1 link mega, The Bodyguard (1992) 1080p Latino-CMHDD 1 link google drive, The Bodyguard (1992) 1080p Latino-CMHDD hd 1080p latino.
Comentarios 0