×

¿Problemas para descargar con Mozilla, EDGE? Deshabilita la opción "Abrir vinculos en una pestaña nueva" tal como lo muestra ésta imagen.

Los Hermanos Caradura (1980) Theatrical Cut REMUX 1080p Latino-CMHDD

36 vistas

Información de Los Hermanos Caradura (1980) Theatrical Cut REMUX 1080p Latino-CMHDD

Datos de la película

  • Calidad: Full 1080p
  • Audio: Español Latino DTS 2.0 BLURAY - Ingles DTS 5.1 BLURAY
  • Subtitulos: Español Latino PGS - Ingles PGS
  • Resolución: 1920x1080p
  • Formato: MKV
  • Codec: H.264
  • Encoder: CinefiloCool
  • Mediainfo: Clic para Mostrar Datos Ver
  • The.Blues.Brothers.1980.Theatrical.Cut.Bluray.REMUX.1080p.AVC.Latino-CC@CMHDD.mkv
    Format                      : Matroska
    Format version              : Version 4
    File size                   : 21.5 GiB
    Duration                    : 2 h 12 min
    Overall bit rate mode       : Variable
    Overall bit rate            : 23.2 Mb/s
    Movie name                  : The Blues Brothers (1980) CinemaniaHDD.Net
    Encoded date                : UTC 2024-03-17 21:48:03
    Writing application         : mkvmerge v56.1.0 ('My Friend') 64-bit
    Writing library             : libebml v1.4.2 + libmatroska v1.6.4
    Cover                       : Yes
    Attachments                 : cover.jpg / CINEMANIAHD.png

    Video
    ID                          : 1
    ID in the original source m : 4113 (0x1011)
    Format                      : AVC
    Format/Info                 : Advanced Video Codec
    Format profile              : High@L4.1
    Format settings             : CABAC / 4 Ref Frames
    Format settings, CABAC      : Yes
    Format settings, Reference  : 4 frames
    Format settings, GOP        : M=3, N=12
    Codec ID                    : V_MPEG4/ISO/AVC
    Duration                    : 2 h 12 min
    Bit rate mode               : Variable
    Bit rate                    : 21.9 Mb/s
    Maximum bit rate            : 35.0 Mb/s
    Width                       : 1 920 pixels
    Height                      : 1 080 pixels
    Display aspect ratio        : 16:9
    Frame rate mode             : Constant
    Frame rate                  : 23.976 (24000/1001) FPS
    Color space                 : YUV
    Chroma subsampling          : 4:2:0
    Bit depth                   : 8 bits
    Scan type                   : Progressive
    Bits/(Pixel*Frame)          : 0.441
    Stream size                 : 20.4 GiB (95%)
    Title                       : REMUX HD1080p [CinemaniaHDD]
    Default                     : Yes
    Forced                      : Yes
    Color range                 : Limited
    Color primaries             : BT.709
    Transfer characteristics    : BT.709
    Matrix coefficients         : BT.709
    Original source medium      : Blu-ray

    Audio #1
    ID                          : 2
    Format                      : DTS
    Format/Info                 : Digital Theater Systems
    Codec ID                    : A_DTS
    Duration                    : 2 h 12 min
    Bit rate mode               : Constant
    Bit rate                    : 447 kb/s
    Channel(s)                  : 2 channels
    Channel layout              : Lt Rt
    Sampling rate               : 48.0 kHz
    Frame rate                  : 93.750 FPS (512 SPF)
    Bit depth                   : 24 bits
    Compression mode            : Lossy
    Stream size                 : 425 MiB (2%)
    Title                       : Español Latino [CinemaniaHDD]
    Language                    : Spanish
    Default                     : Yes
    Forced                      : Yes

    Audio #2
    ID                          : 3
    ID in the original source m : 4352 (0x1100)
    Format                      : DTS
    Format/Info                 : Digital Theater Systems
    Codec ID                    : A_DTS
    Duration                    : 2 h 12 min
    Bit rate mode               : Constant
    Bit rate                    : 768 kb/s
    Channel(s)                  : 6 channels
    Channel layout              : C L R Ls Rs LFE
    Sampling rate               : 48.0 kHz
    Frame rate                  : 93.750 FPS (512 SPF)
    Bit depth                   : 24 bits
    Compression mode            : Lossy
    Stream size                 : 730 MiB (3%)
    Title                       : Ingles [CinemaniaHDD]
    Language                    : English
    Default                     : No
    Forced                      : No
    Original source medium      : Blu-ray

    Text #1
    ID                          : 4
    Format                      : PGS
    Muxing mode                 : zlib
    Codec ID                    : S_HDMV/PGS
    Codec ID/Info               : Picture based subtitle format used on BDs/HD-DVDs
    Duration                    : 2 h 0 min
    Bit rate                    : 602 b/s
    Count of elements           : 52
    Stream size                 : 529 KiB (0%)
    Title                       : Forzados-PGS [CinemaniaHDD]
    Language                    : Spanish
    Default                     : No
    Forced                      : No

    Text #2
    ID                          : 5
    Format                      : PGS
    Muxing mode                 : zlib
    Codec ID                    : S_HDMV/PGS
    Codec ID/Info               : Picture based subtitle format used on BDs/HD-DVDs
    Duration                    : 2 h 11 min
    Bit rate                    : 28.3 kb/s
    Count of elements           : 2576
    Stream size                 : 26.5 MiB (0%)
    Title                       : Español-PGS [CinemaniaHDD]
    Language                    : Spanish
    Default                     : No
    Forced                      : No

    Text #3
    ID                          : 6
    ID in the original source m : 4608 (0x1200)
    Format                      : PGS
    Muxing mode                 : zlib
    Codec ID                    : S_HDMV/PGS
    Codec ID/Info               : Picture based subtitle format used on BDs/HD-DVDs
    Duration                    : 2 h 12 min
    Bit rate                    : 34.6 kb/s
    Count of elements           : 3532
    Stream size                 : 32.8 MiB (0%)
    Title                       : Ingles [CinemaniaHDD]
    Language                    : English
    Default                     : No
    Forced                      : No
    Original source medium      : Blu-ray

    Text #4
    ID                          : 7
    Format                      : UTF-8
    Codec ID                    : S_TEXT/UTF8
    Codec ID/Info               : UTF-8 Plain Text
    Duration                    : 2 h 5 min
    Bit rate                    : 11 b/s
    Count of elements           : 339
    Stream size                 : 10.2 KiB (0%)
    Title                       : Forzados-SRT [CinemaniaHDD]
    Language                    : Spanish
    Default                     : Yes
    Forced                      : Yes

    Text #5
    ID                          : 8
    Format                      : UTF-8
    Codec ID                    : S_TEXT/UTF8
    Codec ID/Info               : UTF-8 Plain Text
    Duration                    : 2 h 11 min
    Bit rate                    : 45 b/s
    Count of elements           : 1288
    Stream size                 : 43.5 KiB (0%)
    Title                       : Español-SRT [CinemaniaHDD]
    Language                    : Spanish
    Default                     : No
    Forced                      : No

    Menu
    00:00:00.000                : Chapter 01
    00:09:34.907                : Chapter 02
    00:15:54.954                : Chapter 03
    00:21:36.753                : Chapter 04
    00:29:42.280                : Chapter 05
    00:35:14.654                : Chapter 06
    00:41:53.719                : Chapter 07
    00:47:25.300                : Chapter 08
    00:50:57.846                : Chapter 09
    00:58:03.271                : Chapter 10
    01:06:23.270                : Chapter 11
    01:14:17.411                : Chapter 12
    01:20:30.951                : Chapter 13
    01:30:07.610                : Chapter 14
    01:41:32.669                : Chapter 15
    01:49:11.002                : Chapter 16
    01:57:28.875                : Chapter 17
    02:04:13.946                : Chapter 18

  • Peso: 21.5 GiB

Sinopsis

Descargar Los Hermanos Caradura (1980) Theatrical Cut REMUX 1080p Latino-CMHDD. Tras pasar años en la cárcel por robo a mano armada, Jake Blues es puesto en libertad por buen comportamiento. Sale de prisión vestido de la misma forma en la que entró: traje y sombrero negro y gafas oscuras. En la puerta le espera su hermano Elwood vestido de idéntica manera. Ahora, el único hogar que conocieron está en peligro. El orfelinato de Santa Elena necesita una gran cantidad de dinero. Los hermanos se ponen manos a la obra.

Ficha técnica

Video trailer de la película

Enlaces de descarga

Rip de Bluray

Descargar Los Hermanos Caradura (1980) Theatrical Cut REMUX 1080p Latino-CMHDD


Aportes de DPeliculasHDmega la pass es:dpeliculashdmega.org Aportes de CinemaniaHD la pass es:cinemaniahdd.com Aportes recientes:cinemaniahdd.net
Guardado en : Acción , Comedia , Crimen , Música , Remux

Películas relacionadas

descargar Los Hermanos Caradura (1980) Theatrical Cut REMUX 1080p Latino-CMHDD Full 1080p 1080p gratis, Los Hermanos Caradura (1980) Theatrical Cut REMUX 1080p Latino-CMHDD Full 1080p mega 1 link, Los Hermanos Caradura (1980) Theatrical Cut REMUX 1080p Latino-CMHDD Full 1080p pelicula completa, descargar Los Hermanos Caradura (1980) Theatrical Cut REMUX 1080p Latino-CMHDD Full 1080p gratis en mega.

Los Hermanos Caradura (1980) Theatrical Cut REMUX 1080p Latino-CMHDD pelicula full hd, Los Hermanos Caradura (1980) Theatrical Cut REMUX 1080p Latino-CMHDD mega latino, Los Hermanos Caradura (1980) Theatrical Cut REMUX 1080p Latino-CMHDD 4k latino, Los Hermanos Caradura (1980) Theatrical Cut REMUX 1080p Latino-CMHDD pelicula completa, Los Hermanos Caradura (1980) Theatrical Cut REMUX 1080p Latino-CMHDD descargar gratis, descargar Los Hermanos Caradura (1980) Theatrical Cut REMUX 1080p Latino-CMHDD pelicula latino, Los Hermanos Caradura (1980) Theatrical Cut REMUX 1080p Latino-CMHDD 1 link mega, Los Hermanos Caradura (1980) Theatrical Cut REMUX 1080p Latino-CMHDD 1 link google drive, Los Hermanos Caradura (1980) Theatrical Cut REMUX 1080p Latino-CMHDD hd 1080p latino.
Comentarios 0