×

¿Problemas para descargar con Mozilla, EDGE? Deshabilita la opción "Abrir vinculos en una pestaña nueva" tal como lo muestra ésta imagen.

Los Hermanos Caradura (1980) Theatrical Cut 1080p Latino-CMHDD

36 vistas

Información de Los Hermanos Caradura (1980) Theatrical Cut 1080p Latino-CMHDD

Datos de la película

  • Calidad: 1080p
  • Audio: Español Latino AC3 2.0 BLURAY - Ingles AC3 5.1 BLURAY
  • Subtitulos: Español Latino SRT - Ingles SRT
  • Resolución: 1920x1040p
  • Formato: MKV
  • Codec: H.264
  • Encoder: CinefiloCool
  • Mediainfo: Clic para Mostrar Datos Ver
  • The.Blues.Brothers.1980.TC.Bluray.1080p.x264.Latino-CC@CMHDD.mkv
    Format                      : Matroska
    Format version              : Version 4
    File size                   : 4.27 GiB
    Duration                    : 2 h 12 min
    Overall bit rate mode       : Variable
    Overall bit rate            : 4 606 kb/s
    Movie name                  : The Blues Brothers (1980) CinemaniaHDD.Net
    Encoded date                : UTC 2024-03-19 04:12:29
    Writing application         : mkvmerge v56.1.0 ('My Friend') 64-bit
    Writing library             : libebml v1.4.2 + libmatroska v1.6.4
    Cover                       : Yes
    Attachments                 : cover.jpg / CINEMANIAHD.png

    Video
    ID                          : 1
    Format                      : AVC
    Format/Info                 : Advanced Video Codec
    Format profile              : High@L4.2
    Format settings             : CABAC / 4 Ref Frames
    Format settings, CABAC      : Yes
    Format settings, Reference  : 4 frames
    Codec ID                    : V_MPEG4/ISO/AVC
    Duration                    : 2 h 12 min
    Bit rate mode               : Variable
    Bit rate                    : 3 899 kb/s
    Width                       : 1 920 pixels
    Height                      : 1 040 pixels
    Display aspect ratio        : 1.85:1
    Frame rate mode             : Constant
    Frame rate                  : 23.976 (24000/1001) FPS
    Color space                 : YUV
    Chroma subsampling          : 4:2:0
    Bit depth                   : 8 bits
    Scan type                   : Progressive
    Bits/(Pixel*Frame)          : 0.081
    Stream size                 : 3.62 GiB (85%)
    Title                       : HD1080p [CinemaniaHDD]
    Writing library             : x264 core 163 r3059 b684ebe0
    Encoding settings           : cabac=1 / ref=4 / deblock=1:-2:-2 / analyse=0x3:0x133 / me=umh / subme=9 / psy=1 / psy_rd=1.00:0.25 / mixed_ref=1 / me_range=16 / chroma_me=1 / trellis=2 / 8x8dct=1 / cqm=0 / deadzone=6,6 / fast_pskip=1 / chroma_qp_offset=-4 / threads=24 / lookahead_threads=2 / sliced_threads=0 / nr=0 / decimate=0 / interlaced=0 / bluray_compat=0 / constrained_intra=0 / bframes=3 / b_pyramid=2 / b_adapt=2 / b_bias=0 / direct=3 / weightb=1 / open_gop=0 / weightp=2 / keyint=240 / keyint_min=24 / scenecut=40 / intra_refresh=0 / rc_lookahead=60 / rc=crf / mbtree=1 / crf=23.5 / qcomp=0.80 / qpmin=0 / qpmax=69 / qpstep=4 / vbv_maxrate=62500 / vbv_bufsize=78125 / crf_max=0.0 / nal_hrd=vbr / filler=0 / ip_ratio=1.10 / aq=1:0.50
    Default                     : Yes
    Forced                      : Yes
    Color range                 : Limited
    Color primaries             : BT.709
    Transfer characteristics    : BT.709
    Matrix coefficients         : BT.709

    Audio #1
    ID                          : 2
    Format                      : AC-3
    Format/Info                 : Audio Coding 3
    Commercial name             : Dolby Digital
    Codec ID                    : A_AC3
    Duration                    : 2 h 12 min
    Bit rate mode               : Constant
    Bit rate                    : 256 kb/s
    Channel(s)                  : 2 channels
    Channel layout              : L R
    Sampling rate               : 48.0 kHz
    Frame rate                  : 31.250 FPS (1536 SPF)
    Compression mode            : Lossy
    Delay relative to video     : -5 ms
    Stream size                 : 243 MiB (6%)
    Title                       : Español Latino [CinemaniaHDD]
    Language                    : Spanish
    Service kind                : Complete Main
    Default                     : Yes
    Forced                      : Yes

    Audio #2
    ID                          : 3
    Format                      : AC-3
    Format/Info                 : Audio Coding 3
    Commercial name             : Dolby Digital
    Codec ID                    : A_AC3
    Duration                    : 2 h 12 min
    Bit rate mode               : Constant
    Bit rate                    : 448 kb/s
    Channel(s)                  : 6 channels
    Channel layout              : L R C LFE Ls Rs
    Sampling rate               : 48.0 kHz
    Frame rate                  : 31.250 FPS (1536 SPF)
    Compression mode            : Lossy
    Delay relative to video     : -5 ms
    Stream size                 : 426 MiB (10%)
    Title                       : Ingles [CinemaniaHDD]
    Language                    : English
    Service kind                : Complete Main
    Default                     : No
    Forced                      : No

    Text #1
    ID                          : 4
    Format                      : UTF-8
    Codec ID                    : S_TEXT/UTF8
    Codec ID/Info               : UTF-8 Plain Text
    Duration                    : 2 h 5 min
    Bit rate                    : 11 b/s
    Count of elements           : 339
    Stream size                 : 10.2 KiB (0%)
    Title                       : Forzados-SRT [CinemaniaHDD]
    Language                    : Spanish
    Default                     : Yes
    Forced                      : Yes

    Text #2
    ID                          : 5
    Format                      : UTF-8
    Codec ID                    : S_TEXT/UTF8
    Codec ID/Info               : UTF-8 Plain Text
    Duration                    : 2 h 11 min
    Bit rate                    : 45 b/s
    Count of elements           : 1288
    Stream size                 : 43.5 KiB (0%)
    Title                       : Español-SRT [CinemaniaHDD]
    Language                    : Spanish
    Default                     : No
    Forced                      : No

    Text #3
    ID                          : 6
    Format                      : UTF-8
    Codec ID                    : S_TEXT/UTF8
    Codec ID/Info               : UTF-8 Plain Text
    Duration                    : 2 h 12 min
    Bit rate                    : 64 b/s
    Count of elements           : 1946
    Stream size                 : 62.0 KiB (0%)
    Title                       : Ingles-SRT [CinemaniaHDD]
    Language                    : English
    Default                     : No
    Forced                      : No

    Menu
    00:00:00.000                : Chapter 01
    00:09:34.907                : Chapter 02
    00:15:54.954                : Chapter 03
    00:21:36.753                : Chapter 04
    00:29:42.280                : Chapter 05
    00:35:14.654                : Chapter 06
    00:41:53.719                : Chapter 07
    00:47:25.300                : Chapter 08
    00:50:57.846                : Chapter 09
    00:58:03.271                : Chapter 10
    01:06:23.270                : Chapter 11
    01:14:17.411                : Chapter 12
    01:20:30.951                : Chapter 13
    01:30:07.610                : Chapter 14
    01:41:32.669                : Chapter 15
    01:49:11.002                : Chapter 16
    01:57:28.875                : Chapter 17
    02:04:13.946                : Chapter 18

  • Peso: 4.27 GiB

Sinopsis

Descargar Los Hermanos Caradura (1980) Theatrical Cut 1080p Latino-CMHDD. Tras pasar años en la cárcel por robo a mano armada, Jake Blues es puesto en libertad por buen comportamiento. Sale de prisión vestido de la misma forma en la que entró: traje y sombrero negro y gafas oscuras. En la puerta le espera su hermano Elwood vestido de idéntica manera. Ahora, el único hogar que conocieron está en peligro. El orfelinato de Santa Elena necesita una gran cantidad de dinero. Los hermanos se ponen manos a la obra.

Ficha técnica

Video trailer de la película

Enlaces de descarga

Rip de Bluray

Descargar Los Hermanos Caradura (1980) Theatrical Cut 1080p Latino-CMHDD




Aportes de DPeliculasHDmega la pass es:dpeliculashdmega.org Aportes de CinemaniaHD la pass es:cinemaniahdd.com Aportes recientes:cinemaniahdd.net
Guardado en : Acción , Comedia , Crimen , HD 1080p , Música

Películas relacionadas

descargar Los Hermanos Caradura (1980) Theatrical Cut 1080p Latino-CMHDD 1080p 1080p gratis, Los Hermanos Caradura (1980) Theatrical Cut 1080p Latino-CMHDD 1080p mega 1 link, Los Hermanos Caradura (1980) Theatrical Cut 1080p Latino-CMHDD 1080p pelicula completa, descargar Los Hermanos Caradura (1980) Theatrical Cut 1080p Latino-CMHDD 1080p gratis en mega.

Los Hermanos Caradura (1980) Theatrical Cut 1080p Latino-CMHDD pelicula full hd, Los Hermanos Caradura (1980) Theatrical Cut 1080p Latino-CMHDD mega latino, Los Hermanos Caradura (1980) Theatrical Cut 1080p Latino-CMHDD 4k latino, Los Hermanos Caradura (1980) Theatrical Cut 1080p Latino-CMHDD pelicula completa, Los Hermanos Caradura (1980) Theatrical Cut 1080p Latino-CMHDD descargar gratis, descargar Los Hermanos Caradura (1980) Theatrical Cut 1080p Latino-CMHDD pelicula latino, Los Hermanos Caradura (1980) Theatrical Cut 1080p Latino-CMHDD 1 link mega, Los Hermanos Caradura (1980) Theatrical Cut 1080p Latino-CMHDD 1 link google drive, Los Hermanos Caradura (1980) Theatrical Cut 1080p Latino-CMHDD hd 1080p latino.
Comentarios 0