×

¿Problemas para descargar con Mozilla, EDGE? Deshabilita la opción "Abrir vinculos en una pestaña nueva" tal como lo muestra ésta imagen.

Un sueño posible (2009) REMUX 1080p Latino

235 vistas

Información de Un sueño posible (2009) REMUX 1080p Latino

Datos de la película

  • Calidad: Full 1080p
  • Audio: Se especifica abajo de la Sinopsis
  • Subtitulos: Español Latino PGS - Ingles PGS
  • Resolución: 1920x1080p
  • Formato: MKV
  • Codec: H.264
  • Encoder: CinefiloCool
  • Mediainfo: Clic para Mostrar Datos Ver
  • Un Sueño Posible (2009) REMUX 1080p Latino-CMHDD.mkv
    Format                      : Matroska
    Format version              : Version 4
    File size                   : 27.6 GiB
    Duration                    : 2 h 8 min
    Overall bit rate mode       : Variable
    Overall bit rate            : 30.8 Mb/s
    Movie name                  : The Blind Side (2009) CinemaniaHDD.Net
    Encoded date                : UTC 2021-11-20 18:52:34
    Writing application         : mkvmerge v56.1.0 ('My Friend') 64-bit
    Writing library             : libebml v1.4.2 + libmatroska v1.6.4
    Attachments                 : CINEMANIAHD.png

    Video
    ID                          : 1
    Format                      : VC-1
    Format profile              : Advanced@L3
    Codec ID                    : V_MS/VFW/FOURCC / WVC1
    Codec ID/Hint               : Microsoft
    Duration                    : 2 h 8 min
    Bit rate                    : 26.0 Mb/s
    Width                       : 1 920 pixels
    Height                      : 1 080 pixels
    Display aspect ratio        : 16:9
    Frame rate mode             : Constant
    Frame rate                  : 23.976 (24000/1001) FPS
    Color space                 : YUV
    Chroma subsampling          : 4:2:0
    Bit depth                   : 8 bits
    Scan type                   : Progressive
    Compression mode            : Lossy
    Bits/(Pixel*Frame)          : 0.522
    Stream size                 : 23.3 GiB (84%)
    Title                       : REMUX HD1080p [CinemaniaHDD]
    Language                    : English
    Default                     : Yes
    Forced                      : Yes

    Audio #1
    ID                          : 2
    Format                      : AC-3
    Format/Info                 : Audio Coding 3
    Commercial name             : Dolby Digital
    Codec ID                    : A_AC3
    Duration                    : 2 h 8 min
    Bit rate mode               : Constant
    Bit rate                    : 640 kb/s
    Channel(s)                  : 6 channels
    Channel layout              : L R C LFE Ls Rs
    Sampling rate               : 48.0 kHz
    Frame rate                  : 31.250 FPS (1536 SPF)
    Compression mode            : Lossy
    Stream size                 : 588 MiB (2%)
    Title                       : Español Latino AC3 [CinemaniaHDD]
    Language                    : Spanish
    Service kind                : Complete Main
    Default                     : Yes
    Forced                      : Yes

    Audio #2
    ID                          : 3
    Format                      : DTS XLL
    Format/Info                 : Digital Theater Systems
    Commercial name             : DTS-HD Master Audio
    Codec ID                    : A_DTS
    Duration                    : 2 h 8 min
    Bit rate mode               : Variable
    Bit rate                    : 3 477 kb/s
    Channel(s)                  : 6 channels
    Channel layout              : C L R Ls Rs LFE
    Sampling rate               : 48.0 kHz
    Frame rate                  : 93.750 FPS (512 SPF)
    Bit depth                   : 24 bits
    Compression mode            : Lossless
    Stream size                 : 3.12 GiB (11%)
    Title                       : Ingles [CinemaniaHDD]
    Language                    : English
    Default                     : No
    Forced                      : No

    Audio #3
    ID                          : 4
    Format                      : E-AC-3
    Format/Info                 : Enhanced AC-3
    Commercial name             : Dolby Digital Plus
    Codec ID                    : A_EAC3
    Duration                    : 2 h 8 min
    Bit rate mode               : Constant
    Bit rate                    : 640 kb/s
    Channel(s)                  : 6 channels
    Channel layout              : L R C LFE Ls Rs
    Sampling rate               : 48.0 kHz
    Frame rate                  : 31.250 FPS (1536 SPF)
    Compression mode            : Lossy
    Delay relative to video     : 3 s 676 ms
    Stream size                 : 588 MiB (2%)
    Title                       : Español Latino EAC3 [CinemaniaHDD]
    Language                    : Spanish
    Service kind                : Complete Main
    Default                     : No
    Forced                      : No

    Text #1
    ID                          : 5
    Format                      : PGS
    Muxing mode                 : zlib
    Codec ID                    : S_HDMV/PGS
    Codec ID/Info               : Picture based subtitle format used on BDs/HD-DVDs
    Duration                    : 2 h 7 min
    Bit rate                    : 38.5 kb/s
    Count of elements           : 3332
    Stream size                 : 35.3 MiB (0%)
    Title                       : Español-PGS [CinemaniaHDD]
    Language                    : Spanish
    Default                     : No
    Forced                      : No

    Text #2
    ID                          : 6
    Format                      : PGS
    Muxing mode                 : zlib
    Codec ID                    : S_HDMV/PGS
    Codec ID/Info               : Picture based subtitle format used on BDs/HD-DVDs
    Duration                    : 2 h 8 min
    Bit rate                    : 42.6 kb/s
    Count of elements           : 3600
    Stream size                 : 39.0 MiB (0%)
    Title                       : Ingles-PGS [CinemaniaHDD]
    Language                    : English
    Default                     : No
    Forced                      : No

    Text #3
    ID                          : 7
    Format                      : UTF-8
    Codec ID                    : S_TEXT/UTF8
    Codec ID/Info               : UTF-8 Plain Text
    Duration                    : 1 h 57 min
    Bit rate                    : 0 b/s
    Count of elements           : 17
    Stream size                 : 235 Bytes (0%)
    Title                       : Forzados-SRT [CinemaniaHDD]
    Language                    : Spanish
    Default                     : Yes
    Forced                      : Yes

    Text #4
    ID                          : 8
    Format                      : UTF-8
    Codec ID                    : S_TEXT/UTF8
    Codec ID/Info               : UTF-8 Plain Text
    Duration                    : 2 h 7 min
    Bit rate                    : 64 b/s
    Count of elements           : 1675
    Stream size                 : 60.5 KiB (0%)
    Title                       : Español-SRT [CinemaniaHDD]
    Language                    : Spanish
    Default                     : No
    Forced                      : No

    Menu
    00:00:00.000                : Ideal Left Tackle
    00:05:45.470                : Christian Thing
    00:09:14.720                : White Walls
    00:14:43.549                : Family News
    00:18:39.118                : Just for One Night
    00:24:25.422                : Thanksgiving Table
    00:28:41.386                : Homeless
    00:32:36.996                : Leigh Anne's Project
    00:36:49.040                : Never Had One Before
    00:39:49.386                : Marcus and Ferdinand
    00:46:01.508                : Comfort Levels
    00:51:02.893                : Personal Thing
    00:54:42.237                : Becoming Legal
    00:59:15.051                : Mrs. Oher
    01:02:55.396                : Armed for an Accident
    01:08:29.522                : Protect the Family
    01:12:54.995                : So Many Rednecks
    01:17:44.534                : I Got Your Back
    01:22:44.417                : I Want Him Bad
    01:26:22.093                : Miss Sue and A Coaching Slew
    01:33:44.660                : The Decision
    01:37:00.731                : Something to Write About
    01:41:39.009                : Graduation Day
    01:43:05.762                : Don't You Dare Lie
    01:48:06.313                : Protect Mode
    01:53:37.477                : Where My Family Goes
    01:58:58.506                : Thank God and LT
    02:02:29.383                : Epilogue and End Credits

  • Peso: 27.6 GiB

Sinopsis

Descargar Un sueño posible (2009) REMUX 1080p Latino. Basada en hechos reales, narra la historia de Michael Oher, un joven afroamericano sin hogar que encuentra ayuda y cobijo en una familia blanca, dispuesta a prestarle el apoyo necesario para que pueda desarrollar todo su potencial, tanto para triunfar como jugador de fútbol americano como en la vida. Por su parte Oher también influirá en la vida de los miembros de la familia Touhy, que atravesarán también por experiencias de descubrimiento personal. El cambio de ambiente significa también nuevos desafíos que el joven habrá de vencer, esforzándose por dar lo máximo de sí mismo como deportista y como persona.

Audio Español Latino EAC3 5.1 AMZN + AC3 5.1 Bluray – Ingles DTS-HD 5.1 Bluray
Disponible Solo Para VIP!!!

Ficha técnica

Video trailer de la película

Enlaces de descarga

Rip de Bluray

Descargar Un sueño posible (2009) REMUX 1080p Latino


Aportes de DPeliculasHDmega la pass es:dpeliculashdmega.org Aportes de CinemaniaHD la pass es:cinemaniahdd.com
Guardado en : Drama , Remux

Películas relacionadas

  • Hombre de familia (2000) REMUX 1080p Latino

    Hombre de familia (2000) REMUX 1080p Latino

    2000
    Hombre de familia (2000) REMUX 1080p Latino

    2h 1m 2000

    Descargar Hombre de familia (2000) REMUX 1080p Latino. Jack Campbell es un egocéntrico broker de Wall...

    Director: Robert Schroer

    Género: Comedia

    Actores: Wass Stevens

  • Anon (2018) REMUX 1080p Latino

    Anon (2018) REMUX 1080p Latino

    2018
    Anon (2018) REMUX 1080p Latino

    1h 40m 2018

    Descargar Anon (2018) REMUX 1080p Latino. Anon nos lleva hasta un futuro no muy lejano al estilo soviético,...

    Director: Sarah Campbell

    Género: Ciencia ficción

    Actores: Zion Lee

  • Te Amo Brother (2009) REMUX 1080p Latino

    Te Amo Brother (2009) REMUX 1080p Latino

    2009
    Te Amo Brother (2009) REMUX 1080p Latino

    1h 45m 2009

    Descargar Te Amo Brother (2009) REMUX 1080p Latino. Peter Klaven (Paul Rudd) es un joven que vive muy...

    Director: Scott Robertson

    Género: Comedia

    Actores: Vicki Davis

descargar Un sueño posible (2009) REMUX 1080p Latino Full 1080p 1080p gratis, Un sueño posible (2009) REMUX 1080p Latino Full 1080p mega 1 link, Un sueño posible (2009) REMUX 1080p Latino Full 1080p pelicula completa, descargar Un sueño posible (2009) REMUX 1080p Latino Full 1080p gratis en mega.

Un sueño posible (2009) REMUX 1080p Latino pelicula full hd, Un sueño posible (2009) REMUX 1080p Latino mega latino, Un sueño posible (2009) REMUX 1080p Latino 4k latino, Un sueño posible (2009) REMUX 1080p Latino pelicula completa, Un sueño posible (2009) REMUX 1080p Latino descargar gratis, descargar Un sueño posible (2009) REMUX 1080p Latino pelicula latino, Un sueño posible (2009) REMUX 1080p Latino 1 link mega, Un sueño posible (2009) REMUX 1080p Latino 1 link google drive, Un sueño posible (2009) REMUX 1080p Latino hd 1080p latino.
Comentarios 0