×

¿Problemas para descargar con Mozilla, EDGE? Deshabilita la opción "Abrir vinculos en una pestaña nueva" tal como lo muestra ésta imagen.

Un sueño posible (2009) 1080p Latino

26 vistas

Información de Un sueño posible (2009) 1080p Latino

Datos de la película

  • Calidad: 1080p
  • Audio: Español Latino AC3 5.1 BLURAY - Ingles AC3 5.1 BLURAY
  • Subtitulos: Español Latino SRT - Ingles SRT
  • Resolución: 1920x804p
  • Formato: MKV
  • Codec: H.264
  • Encoder: CinefiloCool
  • Mediainfo: Clic para Mostrar Datos Ver
  • Un Sueño Posible (2009) 1080p Latino-CMHDD.mkv
    Format                      : Matroska
    Format version              : Version 4
    File size                   : 4.86 GiB
    Duration                    : 2 h 8 min
    Overall bit rate mode       : Variable
    Overall bit rate            : 5 415 kb/s
    Movie name                  : The Blind Side (2009) CinemaniaHDD.Net
    Encoded date                : UTC 2022-08-28 20:07:54
    Writing application         : mkvmerge v56.1.0 ('My Friend') 64-bit
    Writing library             : libebml v1.4.2 + libmatroska v1.6.4
    Attachments                 : CINEMANIAHD.png

    Video
    ID                          : 1
    Format                      : AVC
    Format/Info                 : Advanced Video Codec
    Format profile              : High@L4.2
    Format settings             : CABAC / 4 Ref Frames
    Format settings, CABAC      : Yes
    Format settings, Reference  : 4 frames
    Codec ID                    : V_MPEG4/ISO/AVC
    Duration                    : 2 h 8 min
    Bit rate mode               : Variable
    Bit rate                    : 4 325 kb/s
    Width                       : 1 920 pixels
    Height                      : 1 080 pixels
    Display aspect ratio        : 16:9
    Frame rate mode             : Constant
    Frame rate                  : 23.976 (24000/1001) FPS
    Color space                 : YUV
    Chroma subsampling          : 4:2:0
    Bit depth                   : 8 bits
    Scan type                   : Progressive
    Bits/(Pixel*Frame)          : 0.087
    Stream size                 : 3.88 GiB (80%)
    Title                       : HD1080p [CinemaniaHDD]
    Writing library             : x264 core 163 r3059 b684ebe0
    Encoding settings           : cabac=1 / ref=4 / deblock=1:-2:-2 / analyse=0x3:0x133 / me=umh / subme=9 / psy=1 / psy_rd=1.00:0.25 / mixed_ref=1 / me_range=16 / chroma_me=1 / trellis=2 / 8x8dct=1 / cqm=0 / deadzone=6,6 / fast_pskip=1 / chroma_qp_offset=-4 / threads=24 / lookahead_threads=2 / sliced_threads=0 / nr=0 / decimate=0 / interlaced=0 / bluray_compat=0 / constrained_intra=0 / bframes=3 / b_pyramid=2 / b_adapt=2 / b_bias=0 / direct=3 / weightb=1 / open_gop=0 / weightp=2 / keyint=240 / keyint_min=24 / scenecut=40 / intra_refresh=0 / rc_lookahead=60 / rc=crf / mbtree=1 / crf=22.0 / qcomp=0.80 / qpmin=0 / qpmax=69 / qpstep=4 / vbv_maxrate=62500 / vbv_bufsize=78125 / crf_max=0.0 / nal_hrd=vbr / filler=0 / ip_ratio=1.10 / aq=1:0.50
    Default                     : Yes
    Forced                      : Yes
    Color range                 : Limited
    Color primaries             : BT.709
    Transfer characteristics    : BT.709
    Matrix coefficients         : BT.709

    Audio #1
    ID                          : 2
    Format                      : AC-3
    Format/Info                 : Audio Coding 3
    Commercial name             : Dolby Digital
    Codec ID                    : A_AC3
    Duration                    : 2 h 8 min
    Bit rate mode               : Constant
    Bit rate                    : 640 kb/s
    Channel(s)                  : 6 channels
    Channel layout              : L R C LFE Ls Rs
    Sampling rate               : 48.0 kHz
    Frame rate                  : 31.250 FPS (1536 SPF)
    Compression mode            : Lossy
    Delay relative to video     : -5 ms
    Stream size                 : 588 MiB (12%)
    Title                       : Español Latino [CinemaniaHDD]
    Language                    : Spanish
    Service kind                : Complete Main
    Default                     : Yes
    Forced                      : Yes

    Audio #2
    ID                          : 3
    Format                      : AC-3
    Format/Info                 : Audio Coding 3
    Commercial name             : Dolby Digital
    Codec ID                    : A_AC3
    Duration                    : 2 h 8 min
    Bit rate mode               : Constant
    Bit rate                    : 448 kb/s
    Channel(s)                  : 6 channels
    Channel layout              : L R C LFE Ls Rs
    Sampling rate               : 48.0 kHz
    Frame rate                  : 31.250 FPS (1536 SPF)
    Compression mode            : Lossy
    Delay relative to video     : -5 ms
    Stream size                 : 412 MiB (8%)
    Title                       : Ingles [CinemaniaHDD]
    Language                    : English
    Service kind                : Complete Main
    Default                     : No
    Forced                      : No

    Text #1
    ID                          : 4
    Format                      : UTF-8
    Codec ID                    : S_TEXT/UTF8
    Codec ID/Info               : UTF-8 Plain Text
    Duration                    : 1 h 57 min
    Bit rate                    : 0 b/s
    Count of elements           : 17
    Stream size                 : 235 Bytes (0%)
    Title                       : Forzados-SRT [CinemaniaHDD]
    Language                    : Spanish
    Default                     : Yes
    Forced                      : Yes

    Text #2
    ID                          : 5
    Format                      : UTF-8
    Codec ID                    : S_TEXT/UTF8
    Codec ID/Info               : UTF-8 Plain Text
    Duration                    : 2 h 7 min
    Bit rate                    : 64 b/s
    Count of elements           : 1675
    Stream size                 : 60.5 KiB (0%)
    Title                       : Español-SRT [CinemaniaHDD]
    Language                    : Spanish
    Default                     : No
    Forced                      : No

    Text #3
    ID                          : 6
    Format                      : UTF-8
    Codec ID                    : S_TEXT/UTF8
    Codec ID/Info               : UTF-8 Plain Text
    Duration                    : 2 h 8 min
    Bit rate                    : 72 b/s
    Count of elements           : 1795
    Stream size                 : 67.7 KiB (0%)
    Title                       : Ingles-SRT [CinemaniaHDD]
    Language                    : English
    Default                     : No
    Forced                      : No

    Menu
    00:00:00.000                : Ideal Left Tackle
    00:05:45.470                : Christian Thing
    00:09:14.720                : White Walls
    00:14:43.549                : Family News
    00:18:39.118                : Just for One Night
    00:24:25.422                : Thanksgiving Table
    00:28:41.386                : Homeless
    00:32:36.996                : Leigh Anne's Project
    00:36:49.040                : Never Had One Before
    00:39:49.386                : Marcus and Ferdinand
    00:46:01.508                : Comfort Levels
    00:51:02.893                : Personal Thing
    00:54:42.237                : Becoming Legal
    00:59:15.051                : Mrs. Oher
    01:02:55.396                : Armed for an Accident
    01:08:29.522                : Protect the Family
    01:12:54.995                : So Many Rednecks
    01:17:44.534                : I Got Your Back
    01:22:44.417                : I Want Him Bad
    01:26:22.093                : Miss Sue and A Coaching Slew
    01:33:44.660                : The Decision
    01:37:00.731                : Something to Write About
    01:41:39.009                : Graduation Day
    01:43:05.762                : Don't You Dare Lie
    01:48:06.313                : Protect Mode
    01:53:37.477                : Where My Family Goes
    01:58:58.506                : Thank God and LT
    02:02:29.383                : Epilogue and End Credits

  • Peso: 4.86 GiB

Sinopsis

Descargar Un sueño posible (2009) 1080p Latino. Basada en hechos reales, narra la historia de Michael Oher, un joven afroamericano sin hogar que encuentra ayuda y cobijo en una familia blanca, dispuesta a prestarle el apoyo necesario para que pueda desarrollar todo su potencial, tanto para triunfar como jugador de fútbol americano como en la vida. Por su parte Oher también influirá en la vida de los miembros de la familia Touhy, que atravesarán también por experiencias de descubrimiento personal. El cambio de ambiente significa también nuevos desafíos que el joven habrá de vencer, esforzándose por dar lo máximo de sí mismo como deportista y como persona.

Ficha técnica

Video trailer de la película

Enlaces de descarga

Rip de Bluray

Descargar Un sueño posible (2009) 1080p Latino




Aportes de DPeliculasHDmega la pass es:dpeliculashdmega.org Aportes de CinemaniaHD la pass es:cinemaniahdd.com
Guardado en : Drama , HD 1080p

Películas relacionadas

descargar Un sueño posible (2009) 1080p Latino 1080p 1080p gratis, Un sueño posible (2009) 1080p Latino 1080p mega 1 link, Un sueño posible (2009) 1080p Latino 1080p pelicula completa, descargar Un sueño posible (2009) 1080p Latino 1080p gratis en mega.

Un sueño posible (2009) 1080p Latino pelicula full hd, Un sueño posible (2009) 1080p Latino mega latino, Un sueño posible (2009) 1080p Latino 4k latino, Un sueño posible (2009) 1080p Latino pelicula completa, Un sueño posible (2009) 1080p Latino descargar gratis, descargar Un sueño posible (2009) 1080p Latino pelicula latino, Un sueño posible (2009) 1080p Latino 1 link mega, Un sueño posible (2009) 1080p Latino 1 link google drive, Un sueño posible (2009) 1080p Latino hd 1080p latino.
Comentarios 0