×

¿Problemas para descargar con Mozilla, EDGE? Deshabilita la opción "Abrir vinculos en una pestaña nueva" tal como lo muestra ésta imagen.

The Black Cauldron (1985) WEB-DL 4K-HDR 2160p Latino

906 vistas

Información de The Black Cauldron (1985) WEB-DL 4K-HDR 2160p Latino

Datos de la película

  • Calidad: 4K HDR
  • Audio: Se especifica abajo de la Sinopsis
  • Subtitulos: Español Latino SRT- FORZADOS SRT
  • Resolución: 3840x2160
  • Formato: MKV
  • Codec: H.264
  • Encoder: cinemaniahdd
  • Mediainfo: Clic para Mostrar Datos Ver
  • The Black Cauldron (1985) WEB-DL 4K-HDR 2160p Latino.mkv
    Format                      : Matroska
    Format version              : Version 4
    File size                   : 9.52 GiB
    Duration                    : 1 h 21 min
    Overall bit rate            : 16.6 Mb/s
    Movie name                  : The Black Cauldron (1985) - CinemaniaHDD.Net
    Encoded date                : UTC 2020-03-01 03:48:13
    Writing application         : mkvmerge v42.0.0 ('Overtime') 64-bit
    Writing library             : libebml v1.3.10 + libmatroska v1.5.2

    Video
    ID                          : 1
    Format                      : HEVC
    Format/Info                 : High Efficiency Video Coding
    Format profile              : Main 10@L5@High
    Codec ID                    : V_MPEGH/ISO/HEVC
    Duration                    : 1 h 21 min
    Bit rate                    : 16.1 Mb/s
    Width                       : 3 840 pixels
    Height                      : 2 160 pixels
    Display aspect ratio        : 16:9
    Frame rate mode             : Constant
    Frame rate                  : 23.976 (24000/1001) FPS
    Color space                 : YUV
    Chroma subsampling          : 4:2:0
    Bit depth                   : 10 bits
    Bits/(Pixel*Frame)          : 0.081
    Stream size                 : 9.22 GiB (97%)
    Title                       : CinemaniaHDD
    Language                    : English
    Default                     : Yes
    Forced                      : No
    Color range                 : Limited
    Color primaries             : BT.2020
    Transfer characteristics    : PQ
    Matrix coefficients         : BT.2020 non-constant

    Audio #1
    ID                          : 2
    Format                      : AC-3
    Format/Info                 : Audio Coding 3
    Commercial name             : Dolby Digital
    Codec ID                    : A_AC3
    Duration                    : 1 h 21 min
    Bit rate mode               : Constant
    Bit rate                    : 256 kb/s
    Channel(s)                  : 2 channels
    Channel layout              : L R
    Sampling rate               : 48.0 kHz
    Frame rate                  : 31.250 FPS (1536 SPF)
    Bit depth                   : 16 bits
    Compression mode            : Lossy
    Stream size                 : 150 MiB (2%)
    Title                       : Español latino [CinemaniaHDD]
    Language                    : Spanish
    Service kind                : Complete Main
    Default                     : Yes
    Forced                      : No

    Audio #2
    ID                          : 3
    Format                      : E-AC-3
    Format/Info                 : Enhanced AC-3
    Commercial name             : Dolby Digital Plus
    Codec ID                    : A_EAC3
    Duration                    : 1 h 21 min
    Bit rate mode               : Constant
    Bit rate                    : 256 kb/s
    Channel(s)                  : 6 channels
    Channel layout              : L R C LFE Ls Rs
    Sampling rate               : 48.0 kHz
    Frame rate                  : 31.250 FPS (1536 SPF)
    Compression mode            : Lossy
    Stream size                 : 150 MiB (2%)
    Title                       : Inglés [CinemaniaHDD]
    Language                    : English
    Service kind                : Complete Main
    Default                     : No
    Forced                      : No

    Text #1
    ID                          : 4
    Format                      : UTF-8
    Codec ID                    : S_TEXT/UTF8
    Codec ID/Info               : UTF-8 Plain Text
    Duration                    : 8 s 476 ms
    Bit rate                    : 24 b/s
    Count of elements           : 1
    Stream size                 : 26.0 Bytes (0%)
    Title                       : Forzados [CinemaniaHDD]
    Language                    : Spanish
    Default                     : Yes
    Forced                      : Yes

    Text #2
    ID                          : 5
    Format                      : UTF-8
    Codec ID                    : S_TEXT/UTF8
    Codec ID/Info               : UTF-8 Plain Text
    Duration                    : 1 h 15 min
    Bit rate                    : 40 b/s
    Count of elements           : 699
    Stream size                 : 22.3 KiB (0%)
    Title                       : Español latino [CinemaniaHDD]
    Language                    : Spanish
    Default                     : No
    Forced                      : No

     

  • Peso: 9.52 GiB

Sinopsis

Tarón es un valeroso joven que debe impedir que el malvado Rey Horned se apodere del Caldero Mágico, cuya fuerza misteriosa es capaz de crear un auténtico ejército de invencibles guerreros sobrenaturales. En su lucha contra el mal, Tarón cuenta con la ayuda de su maestro, Dallben, la princesa Eilonwy, un animal con aspecto de osito de peluche llamada Gurgi, un juglar que se hace llamar Fflewddur Fflam, un cerdito con dotes de clarividente y un trío de brujas excéntricas.

Español Latino AC3 2.0 – Ingles E-AC3 5.1 WEB-DL

Ficha técnica

Video trailer de la película

Enlaces de descarga

Rip de Bluray

Descargar The Black Cauldron (1985) WEB-DL 4K-HDR 2160p Latino




Aportes de DPeliculasHDmega la pass es:dpeliculashdmega.org Aportes de CinemaniaHD la pass es:cinemaniahdd.com
Guardado en : 4K HDR , 4K UHD , Animación , Aventura , Familia

Películas relacionadas

descargar The Black Cauldron (1985) WEB-DL 4K-HDR 2160p Latino 4K HDR 1080p gratis, The Black Cauldron (1985) WEB-DL 4K-HDR 2160p Latino 4K HDR mega 1 link, The Black Cauldron (1985) WEB-DL 4K-HDR 2160p Latino 4K HDR pelicula completa, descargar The Black Cauldron (1985) WEB-DL 4K-HDR 2160p Latino 4K HDR gratis en mega.

The Black Cauldron (1985) WEB-DL 4K-HDR 2160p Latino pelicula full hd, The Black Cauldron (1985) WEB-DL 4K-HDR 2160p Latino mega latino, The Black Cauldron (1985) WEB-DL 4K-HDR 2160p Latino 4k latino, The Black Cauldron (1985) WEB-DL 4K-HDR 2160p Latino pelicula completa, The Black Cauldron (1985) WEB-DL 4K-HDR 2160p Latino descargar gratis, descargar The Black Cauldron (1985) WEB-DL 4K-HDR 2160p Latino pelicula latino, The Black Cauldron (1985) WEB-DL 4K-HDR 2160p Latino 1 link mega, The Black Cauldron (1985) WEB-DL 4K-HDR 2160p Latino 1 link google drive, The Black Cauldron (1985) WEB-DL 4K-HDR 2160p Latino hd 1080p latino.
Comentarios 0