×

¿Problemas para descargar con Mozilla, EDGE? Deshabilita la opción "Abrir vinculos en una pestaña nueva" tal como lo muestra ésta imagen.

¿Quien Perdió Un Panda? (2019) 1080p Latino

310 vistas

Información de ¿Quien Perdió Un Panda? (2019) 1080p Latino

Datos de la película

  • Calidad: 1080p
  • Audio: Español Latino AC3 2.0 CAPTURADO - Ruso AC3 5.1
  • Subtitulos: Español Latino SRT
  • Resolución: 1920x800p
  • Formato: MKV
  • Codec: H.264
  • Encoder: CinemaniaHD
  • Mediainfo: Clic para Mostrar Datos Ver
  • The Big Trip (2019) 1080p Latino.mkv
    Format                      : Matroska
    Format version              : Version 4
    File size                   : 2.40 GiB
    Duration                    : 1 h 23 min
    Overall bit rate            : 4 088 kb/s
    Encoded date                : UTC 2020-06-10 19:53:41
    Writing application         : mkvmerge v46.0.0 ('No Deeper Escape') 64-bit
    Writing library             : libebml v1.3.10 + libmatroska v1.5.2 / Lavf58.29.100

    Video
    ID                          : 1
    Format                      : AVC
    Format/Info                 : Advanced Video Codec
    Format profile              : High@L4.1
    Format settings             : CABAC / 5 Ref Frames
    Format settings, CABAC      : Yes
    Format settings, Reference  : 5 frames
    Codec ID                    : V_MPEG4/ISO/AVC
    Duration                    : 1 h 23 min
    Bit rate                    : 3 500 kb/s
    Width                       : 1 920 pixels
    Height                      : 800 pixels
    Display aspect ratio        : 2.40:1
    Frame rate mode             : Constant
    Frame rate                  : 23.976 (24000/1001) FPS
    Color space                 : YUV
    Chroma subsampling          : 4:2:0
    Bit depth                   : 8 bits
    Scan type                   : Progressive
    Bits/(Pixel*Frame)          : 0.095
    Stream size                 : 1.98 GiB (83%)
    Writing library             : x264 core 157 r2935 545de2f
    Encoding settings           : cabac=1 / ref=5 / deblock=1:1:1 / analyse=0x3:0x113 / me=hex / subme=8 / psy=1 / psy_rd=0.40:0.00 / mixed_ref=1 / me_range=16 / chroma_me=1 / trellis=2 / 8x8dct=1 / cqm=0 / deadzone=21,11 / fast_pskip=1 / chroma_qp_offset=-2 / threads=24 / lookahead_threads=4 / sliced_threads=0 / nr=0 / decimate=1 / interlaced=0 / bluray_compat=0 / constrained_intra=0 / bframes=5 / b_pyramid=2 / b_adapt=1 / b_bias=0 / direct=3 / weightb=1 / open_gop=0 / weightp=2 / keyint=240 / keyint_min=24 / scenecut=40 / intra_refresh=0 / rc_lookahead=50 / rc=abr / mbtree=1 / bitrate=3500 / ratetol=1.0 / qcomp=0.60 / qpmin=0 / qpmax=69 / qpstep=4 / vbv_maxrate=62500 / vbv_bufsize=78125 / nal_hrd=none / filler=0 / ip_ratio=1.40 / aq=1:0.60
    Default                     : Yes
    Forced                      : No
    Color range                 : Limited
    Color primaries             : BT.709
    Transfer characteristics    : BT.709
    Matrix coefficients         : BT.709

    Audio #1
    ID                          : 2
    Format                      : AC-3
    Format/Info                 : Audio Coding 3
    Commercial name             : Dolby Digital
    Codec ID                    : A_AC3
    Duration                    : 1 h 23 min
    Bit rate mode               : Constant
    Bit rate                    : 256 kb/s
    Channel(s)                  : 2 channels
    Channel layout              : L R
    Sampling rate               : 48.0 kHz
    Frame rate                  : 31.250 FPS (1536 SPF)
    Compression mode            : Lossy
    Delay relative to video     : -5 ms
    Stream size                 : 154 MiB (6%)
    Language                    : Spanish
    Service kind                : Complete Main
    Default                     : Yes
    Forced                      : No

    Audio #2
    ID                          : 3
    Format                      : AC-3
    Format/Info                 : Audio Coding 3
    Commercial name             : Dolby Digital
    Codec ID                    : A_AC3
    Duration                    : 1 h 23 min
    Bit rate mode               : Constant
    Bit rate                    : 448 kb/s
    Channel(s)                  : 6 channels
    Channel layout              : L R C LFE Ls Rs
    Sampling rate               : 48.0 kHz
    Frame rate                  : 31.250 FPS (1536 SPF)
    Compression mode            : Lossy
    Delay relative to video     : -5 ms
    Stream size                 : 269 MiB (11%)
    Language                    : Russian
    Service kind                : Complete Main
    Default                     : No
    Forced                      : No

    Text
    ID                          : 4
    Format                      : UTF-8
    Codec ID                    : S_TEXT/UTF8
    Codec ID/Info               : UTF-8 Plain Text
    Duration                    : 1 h 18 min
    Bit rate                    : 42 b/s
    Count of elements           : 851
    Stream size                 : 24.4 KiB (0%)
    Language                    : Spanish
    Default                     : No
    Forced                      : No

  • Peso: 2.40 GiB

Sinopsis

Descargar ¿Quien Perdió Un Panda? (2019) HD 1080p Latino. Conocida en españa como Operacion Panda y en Estados Unidos como The Big Trip, es una pelicula Rusa en conjunto con Estados unidos del genero animación-familiar. Por equivocación, una torpe cigüeña entrega un panda bebé a la dirección incorrecta. Será entonces cuando un oso y sus amigos se embarquen en una audaz aventura para ayudar al pequeño panda a conocer finalmente a su verdadera familia y devolverlo a su hogar. ¿Lo lograrán?

Español Latino AC3 2.0 Capturado – Ruso AC3 5.1 Bluray

Nota: La parte final de la pelicula en el idioma español esta en Castellano [Español de España, bastante neutro] 🙂

Ficha técnica

Video trailer de la película

Enlaces de descarga

Rip de Bluray

Descargar ¿Quien Perdió Un Panda? (2019) 1080p Latino




Aportes de DPeliculasHDmega la pass es:dpeliculashdmega.org Aportes de CinemaniaHD la pass es:cinemaniahdd.com
Guardado en : Animación , Aventura , Comedia , Familia , HD 1080p

Películas relacionadas

descargar ¿Quien Perdió Un Panda? (2019) 1080p Latino 1080p 1080p gratis, ¿Quien Perdió Un Panda? (2019) 1080p Latino 1080p mega 1 link, ¿Quien Perdió Un Panda? (2019) 1080p Latino 1080p pelicula completa, descargar ¿Quien Perdió Un Panda? (2019) 1080p Latino 1080p gratis en mega.

¿Quien Perdió Un Panda? (2019) 1080p Latino pelicula full hd, ¿Quien Perdió Un Panda? (2019) 1080p Latino mega latino, ¿Quien Perdió Un Panda? (2019) 1080p Latino 4k latino, ¿Quien Perdió Un Panda? (2019) 1080p Latino pelicula completa, ¿Quien Perdió Un Panda? (2019) 1080p Latino descargar gratis, descargar ¿Quien Perdió Un Panda? (2019) 1080p Latino pelicula latino, ¿Quien Perdió Un Panda? (2019) 1080p Latino 1 link mega, ¿Quien Perdió Un Panda? (2019) 1080p Latino 1 link google drive, ¿Quien Perdió Un Panda? (2019) 1080p Latino hd 1080p latino.
Comentarios 0