×

¿Problemas para descargar con Mozilla, EDGE? Deshabilita la opción "Abrir vinculos en una pestaña nueva" tal como lo muestra ésta imagen.

Por Eso Lo Llaman Amor (2017) Full HD 1080p Latino

319 vistas

Información de Por Eso Lo Llaman Amor (2017) Full HD 1080p Latino

Datos de la película

  • Calidad: Full 1080p
  • Audio: Español Latino AC3 5.1 BLURAY - Ingles DTS 5.1 BLURAY
  • Subtitulos: Español Latino PGS - Ingles PGS
  • Resolución: 1920x1080p
  • Formato: MKV
  • Codec: H.264
  • Encoder: CinefiloCool
  • Mediainfo: Clic para Mostrar Datos Ver
  • Por Eso Lo Llaman Amor (2017) Full HD 1080p Latino-CMHDD.mkv
    Format                      : Matroska
    Format version              : Version 4
    File size                   : 6.64 GiB
    Duration                    : 2 h 0 min
    Overall bit rate            : 7 890 kb/s
    Movie name                  : The Big Sick (2017) CinemaniaHDD.Net
    Encoded date                : UTC 2020-06-16 03:11:08
    Writing application         : mkvmerge v46.0.0 ('No Deeper Escape') 64-bit
    Writing library             : libebml v1.3.10 + libmatroska v1.5.2
    Attachments                 : CINEMANIAHD.png

    Video
    ID                          : 1
    Format                      : AVC
    Format/Info                 : Advanced Video Codec
    Format profile              : High@L4.1
    Format settings             : CABAC / 4 Ref Frames
    Format settings, CABAC      : Yes
    Format settings, Reference  : 4 frames
    Codec ID                    : V_MPEG4/ISO/AVC
    Duration                    : 2 h 0 min
    Bit rate                    : 5 892 kb/s
    Width                       : 1 920 pixels
    Height                      : 1 080 pixels
    Display aspect ratio        : 16:9
    Frame rate mode             : Constant
    Frame rate                  : 23.976 (24000/1001) FPS
    Color space                 : YUV
    Chroma subsampling          : 4:2:0
    Bit depth                   : 8 bits
    Scan type                   : Progressive
    Bits/(Pixel*Frame)          : 0.119
    Stream size                 : 4.95 GiB (75%)
    Title                       : Full HD1080p [CinemaniaHDD]
    Writing library             : x264 core 157 r2935 545de2f
    Encoding settings           : cabac=1 / ref=4 / deblock=1:0:0 / analyse=0x3:0x133 / me=tesa / subme=11 / psy=1 / psy_rd=1.00:0.00 / mixed_ref=1 / me_range=24 / chroma_me=1 / trellis=2 / 8x8dct=1 / cqm=0 / deadzone=21,11 / fast_pskip=0 / chroma_qp_offset=-2 / threads=24 / lookahead_threads=6 / sliced_threads=0 / nr=0 / decimate=1 / interlaced=0 / bluray_compat=0 / constrained_intra=0 / bframes=16 / b_pyramid=2 / b_adapt=2 / b_bias=0 / direct=3 / weightb=1 / open_gop=0 / weightp=2 / keyint=240 / keyint_min=24 / scenecut=40 / intra_refresh=0 / rc_lookahead=60 / rc=crf / mbtree=1 / crf=20.0 / qcomp=0.60 / qpmin=0 / qpmax=69 / qpstep=4 / vbv_maxrate=62500 / vbv_bufsize=78125 / crf_max=0.0 / nal_hrd=none / filler=0 / ip_ratio=1.40 / aq=1:1.00
    Default                     : Yes
    Forced                      : No
    Color range                 : Limited
    Color primaries             : BT.709
    Transfer characteristics    : BT.709
    Matrix coefficients         : BT.709

    Audio #1
    ID                          : 2
    Format                      : AC-3
    Format/Info                 : Audio Coding 3
    Commercial name             : Dolby Digital
    Codec ID                    : A_AC3
    Duration                    : 2 h 0 min
    Bit rate mode               : Constant
    Bit rate                    : 448 kb/s
    Channel(s)                  : 6 channels
    Channel layout              : L R C LFE Ls Rs
    Sampling rate               : 48.0 kHz
    Frame rate                  : 31.250 FPS (1536 SPF)
    Compression mode            : Lossy
    Stream size                 : 386 MiB (6%)
    Title                       : Español Latino [CinemaniaHDD]
    Language                    : Spanish
    Service kind                : Complete Main
    Default                     : Yes
    Forced                      : No

    Audio #2
    ID                          : 3
    Format                      : DTS
    Format/Info                 : Digital Theater Systems
    Codec ID                    : A_DTS
    Duration                    : 2 h 0 min
    Bit rate mode               : Constant
    Bit rate                    : 1 509 kb/s
    Channel(s)                  : 6 channels
    Channel layout              : C L R Ls Rs LFE
    Sampling rate               : 48.0 kHz
    Frame rate                  : 93.750 FPS (512 SPF)
    Bit depth                   : 24 bits
    Compression mode            : Lossy
    Stream size                 : 1.27 GiB (19%)
    Title                       : Ingles [CinemaniaHDD]
    Language                    : English
    Default                     : No
    Forced                      : No

    Text #1
    ID                          : 4
    Format                      : PGS
    Muxing mode                 : zlib
    Codec ID                    : S_HDMV/PGS
    Codec ID/Info               : Picture based subtitle format used on BDs/HD-DVDs
    Duration                    : 1 h 57 min
    Bit rate                    : 40.1 kb/s
    Count of elements           : 3888
    Stream size                 : 33.6 MiB (0%)
    Title                       : Español-PGS [CinemaniaHDD]
    Language                    : Spanish
    Default                     : No
    Forced                      : No

    Text #2
    ID                          : 5
    Format                      : PGS
    Muxing mode                 : zlib
    Codec ID                    : S_HDMV/PGS
    Codec ID/Info               : Picture based subtitle format used on BDs/HD-DVDs
    Duration                    : 1 h 56 min
    Bit rate                    : 54.9 kb/s
    Count of elements           : 5412
    Stream size                 : 45.9 MiB (1%)
    Title                       : Ingles-PGS [CinemaniaHDD]
    Language                    : English
    Default                     : No
    Forced                      : No

    Text #3
    ID                          : 6
    Format                      : UTF-8
    Codec ID                    : S_TEXT/UTF8
    Codec ID/Info               : UTF-8 Plain Text
    Duration                    : 1 h 18 min
    Bit rate                    : 0 b/s
    Count of elements           : 13
    Stream size                 : 402 Bytes (0%)
    Title                       : Forzados-SRT [CinemaniaHDD]
    Language                    : Spanish
    Default                     : Yes
    Forced                      : No

    Text #4
    ID                          : 7
    Format                      : UTF-8
    Codec ID                    : S_TEXT/UTF8
    Codec ID/Info               : UTF-8 Plain Text
    Duration                    : 1 h 57 min
    Bit rate                    : 76 b/s
    Count of elements           : 1939
    Stream size                 : 65.8 KiB (0%)
    Title                       : Español-SRT [CinemaniaHDD]
    Language                    : Spanish
    Default                     : No
    Forced                      : No

    Menu
    00:00:00.000                : en:Chapter 01
    00:07:16.310                : en:Chapter 02
    00:13:40.694                : en:Chapter 03
    00:21:59.818                : en:Chapter 04
    00:29:05.577                : en:Chapter 05
    00:37:19.403                : en:Chapter 06
    00:45:03.033                : en:Chapter 07
    00:53:08.768                : en:Chapter 08
    01:00:37.425                : en:Chapter 09
    01:08:40.574                : en:Chapter 10
    01:14:46.440                : en:Chapter 11
    01:22:43.667                : en:Chapter 12
    01:31:03.040                : en:Chapter 13
    01:38:32.323                : en:Chapter 14
    01:46:52.155                : en:Chapter 15
    01:57:49.395                : en:Chapter 16

  • Peso: 6.64 GiB

Sinopsis

Descargar Por Eso Lo Llaman Amor (2017) Full HD 1080p Latino. El comediante nacido en Pakistán, Kumail Nanjiani, y la estudiante de posgrado Emily Gardner se enamoran pero luchan mientras sus culturas chocan. Cuando Emily contrae una misteriosa enfermedad, Kumail se ve obligado a enfrentar a sus padres, las expectativas de su familia y sus verdaderos sentimientos.

Ficha técnica

Video trailer de la película

Enlaces de descarga

Rip de Bluray

Descargar Por Eso Lo Llaman Amor (2017) Full HD 1080p Latino




Aportes de DPeliculasHDmega la pass es:dpeliculashdmega.org Aportes de CinemaniaHD la pass es:cinemaniahdd.com

Películas relacionadas

descargar Por Eso Lo Llaman Amor (2017) Full HD 1080p Latino Full 1080p 1080p gratis, Por Eso Lo Llaman Amor (2017) Full HD 1080p Latino Full 1080p mega 1 link, Por Eso Lo Llaman Amor (2017) Full HD 1080p Latino Full 1080p pelicula completa, descargar Por Eso Lo Llaman Amor (2017) Full HD 1080p Latino Full 1080p gratis en mega.

Por Eso Lo Llaman Amor (2017) Full HD 1080p Latino pelicula full hd, Por Eso Lo Llaman Amor (2017) Full HD 1080p Latino mega latino, Por Eso Lo Llaman Amor (2017) Full HD 1080p Latino 4k latino, Por Eso Lo Llaman Amor (2017) Full HD 1080p Latino pelicula completa, Por Eso Lo Llaman Amor (2017) Full HD 1080p Latino descargar gratis, descargar Por Eso Lo Llaman Amor (2017) Full HD 1080p Latino pelicula latino, Por Eso Lo Llaman Amor (2017) Full HD 1080p Latino 1 link mega, Por Eso Lo Llaman Amor (2017) Full HD 1080p Latino 1 link google drive, Por Eso Lo Llaman Amor (2017) Full HD 1080p Latino hd 1080p latino.
Comentarios 0