×

¿Problemas para descargar con Mozilla, EDGE? Deshabilita la opción "Abrir vinculos en una pestaña nueva" tal como lo muestra ésta imagen.

The Big Shot (2019) WEB-DL 1080p Latino

1.111 vistas

Información de The Big Shot (2019) WEB-DL 1080p Latino

Datos de la película

  • Calidad: WEBDL
  • Audio: Se especifica abajo de la Sinopsis
  • Subtitulos: No
  • Resolución: 1920x1080
  • Formato: MKV
  • Codec: H.264
  • Encoder: cinemaniahdd
  • Mediainfo: Clic para Mostrar Datos Ver
  • The Big Shot (2019) WEB-DL 1080p Latino.mkv
    Format                      : Matroska
    Format version              : Version 4
    File size                   : 4.88 GiB
    Duration                    : 1 h 45 min
    Overall bit rate            : 6 619 kb/s
    Movie name                  : The Big Shot (2019) - CinemaniaHDD.Net
    Encoded date                : UTC 2019-11-27 02:53:05
    Writing application         : mkvmerge v38.0.0 ('The Silent Type') 64-bit
    Writing library             : libebml v1.3.9 + libmatroska v1.5.2

    Video
    ID                          : 1
    Format                      : AVC
    Format/Info                 : Advanced Video Codec
    Format profile              : High@L4
    Format settings             : CABAC / 4 Ref Frames
    Format settings, CABAC      : Yes
    Format settings, ReFrames   : 4 frames
    Codec ID                    : V_MPEG4/ISO/AVC
    Duration                    : 1 h 45 min
    Bit rate                    : 6 000 kb/s
    Width                       : 1 920 pixels
    Height                      : 1 080 pixels
    Display aspect ratio        : 16:9
    Frame rate mode             : Constant
    Frame rate                  : 24.000 FPS
    Color space                 : YUV
    Chroma subsampling          : 4:2:0
    Bit depth                   : 8 bits
    Scan type                   : Progressive
    Bits/(Pixel*Frame)          : 0.121
    Stream size                 : 4.41 GiB (90%)
    Title                       : CinemaniaHDD
    Writing library             : x264()-core 129 - H.264/MPEG-4
    Encoding settings           : cabac=1 / ref=4 / deblock=1:0:0 / analyse=0x3:0x133 / me=umh / subme=9 / psy=1 / psy_rd=0.00:0.00 / mixed_ref=1 / me_range=24 / chroma_me=1 / trellis=2 / 8x8dct=1 / cqm=0 / deadzone=21,11 / fast_pskip=0 / chroma_qp_offset=0 / threads=40 / lookahead_threads=6 / sliced_threads=0 / nr=0 / decimate=1 / interlaced=0 / bluray_compat=0 / constrained_intra=0 / bframes=4 / b_pyramid=2 / b_adapt=0 / b_bias=0 / direct=3 / weightb=1 / open_gop=0 / weightp=2 / keyint=240 / keyint_min=24 / scenecut=40 / intra_refresh=0 / rc_lookahead=60 / rc=abr / mbtree=1 / bitrate=6000 / ratetol=1.0 / qcomp=0.60 / qpmin=0 / qpmax=69 / qpstep=4 / vbv_maxrate=12000 / vbv_bufsize=6000 / nal_hrd=none / ip_ratio=1.40 / aq=1:1.00
    Default                     : Yes
    Forced                      : No

    Audio #1
    ID                          : 2
    Format                      : AC-3
    Format/Info                 : Audio Coding 3
    Commercial name             : Dolby Digital
    Codec ID                    : A_AC3
    Duration                    : 1 h 45 min
    Bit rate mode               : Constant
    Bit rate                    : 256 kb/s
    Channel(s)                  : 2 channels
    Channel layout              : L R
    Sampling rate               : 48.0 kHz
    Frame rate                  : 31.250 FPS (1536 SPF)
    Bit depth                   : 16 bits
    Compression mode            : Lossy
    Stream size                 : 193 MiB (4%)
    Title                       : Español latino [CinemaniaHDD]
    Language                    : Spanish
    Service kind                : Complete Main
    Default                     : Yes
    Forced                      : No

    Audio #2
    ID                          : 3
    Format                      : AC-3
    Format/Info                 : Audio Coding 3
    Commercial name             : Dolby Digital
    Codec ID                    : A_AC3
    Duration                    : 1 h 45 min
    Bit rate mode               : Constant
    Bit rate                    : 384 kb/s
    Channel(s)                  : 6 channels
    Channel layout              : L R C LFE Ls Rs
    Sampling rate               : 48.0 kHz
    Frame rate                  : 31.250 FPS (1536 SPF)
    Bit depth                   : 16 bits
    Compression mode            : Lossy
    Stream size                 : 290 MiB (6%)
    Title                       : Chino [CinemaniaHDD]
    Language                    : Chinese
    Service kind                : Complete Main
    Default                     : No
    Forced                      : No

     

  • Peso: 4.88 GiB

Sinopsis

Un reparador de automóviles salta de las escaleras después de una demolición ilegal. El oficial de policía intenta encontrar el crimen y atrapar al malvado jefe.

Español Latino AC3 2.0 Capturado – Chino AC3 5.1 WEB-DL

Ficha técnica

  • Titulo original: “大”人物
  • Fecha de lanzamiento: 10-01-2019 (China)
  • Director: Shubo Guo
  • Género: Acción, Crimen

Video trailer de la película

Enlaces de descarga

Rip de Bluray

Descargar The Big Shot (2019) WEB-DL 1080p Latino




Aportes de DPeliculasHDmega la pass es:dpeliculashdmega.org Aportes de CinemaniaHD la pass es:cinemaniahdd.com
Guardado en : Acción , Crimen

Películas relacionadas

  • Walker (2022) Temporada 3 WEB-DL 1080p Latino

    Walker (2022) Temporada 3 WEB-DL 1080p Latino

    2021
    Walker (2022) Temporada 3 WEB-DL 1080p Latino

    0h 45m 2021

    Reboot de la serie de 1993 que se centra en Walker cuando regresa de años de incógnito. Viudo y...

    Director: Anna Fricke

    Género: Action & Adventure

    Actores: Violet Brinson

  • Plan De Estudios (2022) NF WEB-DL 1080p Latino

    Plan De Estudios (2022) NF WEB-DL 1080p Latino

    2022
    Plan De Estudios (2022) NF WEB-DL 1080p Latino

    1h 41m 2022

    Un expolicía empieza a trabajar en el instituto en el que su difunto mejor amigo daba clase para enfrentarse...

    Director: Daniel Markowicz

    Género: Crimen

    Actores: Zuzanna Galewicz

  • La Mujer Rey (2022) WEB-DL 1080p Latino

    La Mujer Rey (2022) WEB-DL 1080p Latino

    2022
    La Mujer Rey (2022) WEB-DL 1080p Latino

    2h 15m 2022

    Descargar La Mujer Rey (2022) WEB-DL 1080p Latino. Una epopeya histórica inspirada en los hechos reales...

    Director: Gina Prince-Bythewood

    Género: Acción

    Actores: Wanda Banda

  • Black Adam (2022) WEB-DL 4K UHD HDR Latino

    Black Adam (2022) WEB-DL 4K UHD HDR Latino

    2022
    Black Adam (2022) WEB-DL 4K UHD HDR Latino

    2h 4m 2022

    Descargar Black Adam (2022) WEB-DL 4K UHD HDR Latino. Casi 5.000 años después de haber sido dotado...

    Director: Jaume Collet-Serra

    Género: 4K HDR

    Actores: Yssa Mei Panganiban

  • Black Adam (2022) MA WEB-DL 1080p Latino

    Black Adam (2022) MA WEB-DL 1080p Latino

    2022
    Black Adam (2022) MA WEB-DL 1080p Latino

    2h 4m 2022

    Descargar Black Adam (2022) MA WEB-DL 1080p Latino. Casi 5.000 años después de haber sido dotado de...

    Director: Jaume Collet-Serra

    Género: Acción

    Actores: Yssa Mei Panganiban

descargar The Big Shot (2019) WEB-DL 1080p Latino WEBDL 1080p gratis, The Big Shot (2019) WEB-DL 1080p Latino WEBDL mega 1 link, The Big Shot (2019) WEB-DL 1080p Latino WEBDL pelicula completa, descargar The Big Shot (2019) WEB-DL 1080p Latino WEBDL gratis en mega.

The Big Shot (2019) WEB-DL 1080p Latino pelicula full hd, The Big Shot (2019) WEB-DL 1080p Latino mega latino, The Big Shot (2019) WEB-DL 1080p Latino 4k latino, The Big Shot (2019) WEB-DL 1080p Latino pelicula completa, The Big Shot (2019) WEB-DL 1080p Latino descargar gratis, descargar The Big Shot (2019) WEB-DL 1080p Latino pelicula latino, The Big Shot (2019) WEB-DL 1080p Latino 1 link mega, The Big Shot (2019) WEB-DL 1080p Latino 1 link google drive, The Big Shot (2019) WEB-DL 1080p Latino hd 1080p latino.
Comentarios 0