El Gran Pez (2003) REMUX 4K UHD HDR Latino

99 vistas
1 estrella2 estrellas3 estrellas4 estrellas5 estrellas (Ninguna valoración todavía)
Cargando...

Información de El Gran Pez (2003) REMUX 4K UHD HDR Latino

Datos de la película

  • Calidad: 4K HDR
  • Audio: Se especifica abajo de la Sinopsis
  • Subtitulos: Español Latino PGS - Ingles PGS
  • Resolución: 3840x2160p
  • Formato: MKV
  • Codec: HEVC
  • Encoder: CinefiloCool
  • Mediainfo: Clic para Mostrar Datos Ver
  • El Gran Pez (2003) REMUX UHD HDR Latino-CMHDD.mkv
    Format                      : Matroska
    Format version              : Version 4
    File size                   : 61.0 GiB
    Duration                    : 2 h 5 min
    Overall bit rate mode       : Variable
    Overall bit rate            : 69.8 Mb/s
    Movie name                  : Big Fish (2003) CinemaniaHDD.Net
    Encoded date                : UTC 2021-05-03 17:29:05
    Writing application         : mkvmerge v56.1.0 ('My Friend') 64-bit
    Writing library             : libebml v1.4.2 + libmatroska v1.6.4
    Attachments                 : CINEMANIAHD.png

    Video
    ID                          : 1
    ID in the original source m : 4113 (0x1011)
    Format                      : HEVC
    Format/Info                 : High Efficiency Video Coding
    Format profile              : Main 10@L5.1@High
    HDR format                  : SMPTE ST 2086, HDR10 compatible
    Codec ID                    : V_MPEGH/ISO/HEVC
    Duration                    : 2 h 5 min
    Bit rate                    : 63.8 Mb/s
    Width                       : 3 840 pixels
    Height                      : 2 160 pixels
    Display aspect ratio        : 16:9
    Frame rate mode             : Constant
    Frame rate                  : 23.976 (24000/1001) FPS
    Color space                 : YUV
    Chroma subsampling          : 4:2:0 (Type 2)
    Bit depth                   : 10 bits
    Bits/(Pixel*Frame)          : 0.321
    Stream size                 : 55.8 GiB (91%)
    Title                       : REMUX 2160p HDR [Bluray]
    Default                     : No
    Forced                      : Yes
    Color range                 : Limited
    Color primaries             : BT.2020
    Transfer characteristics    : PQ
    Matrix coefficients         : BT.2020 non-constant
    Mastering display color pri : Display P3
    Mastering display luminance : min: 0.0050 cd/m2, max: 4000 cd/m2
    Maximum Content Light Level : 3301 cd/m2
    Maximum Frame-Average Light : 349 cd/m2
    Original source medium      : Blu-ray

    Audio #1
    ID                          : 2
    Format                      : E-AC-3
    Format/Info                 : Enhanced AC-3
    Commercial name             : Dolby Digital Plus
    Codec ID                    : A_EAC3
    Duration                    : 2 h 5 min
    Bit rate mode               : Constant
    Bit rate                    : 640 kb/s
    Channel(s)                  : 6 channels
    Channel layout              : L R C LFE Ls Rs
    Sampling rate               : 48.0 kHz
    Frame rate                  : 31.250 FPS (1536 SPF)
    Compression mode            : Lossy
    Delay relative to video     : 1 s 49 ms
    Stream size                 : 573 MiB (1%)
    Title                       : Español Latino [CinemaniaHDD]
    Language                    : Spanish
    Service kind                : Complete Main
    Default                     : Yes
    Forced                      : Yes

    Audio #2
    ID                          : 3
    ID in the original source m : 4352 (0x1100)
    Format                      : MLP FBA 16-ch
    Format/Info                 : Meridian Lossless Packing FBA with 16-channel presentation
    Commercial name             : Dolby TrueHD with Dolby Atmos
    Codec ID                    : A_TRUEHD
    Duration                    : 2 h 5 min
    Bit rate mode               : Variable
    Bit rate                    : 3 946 kb/s
    Maximum bit rate            : 7 374 kb/s
    Channel(s)                  : 8 channels
    Channel layout              : L R C LFE Ls Rs Lb Rb
    Sampling rate               : 48.0 kHz
    Frame rate                  : 1 200.000 FPS (40 SPF)
    Bit depth                   : 24 bits
    Compression mode            : Lossless
    Stream size                 : 3.45 GiB (6%)
    Title                       : Ingles [CinemaniaHDD]
    Language                    : English
    Default                     : No
    Forced                      : No
    Original source medium      : Blu-ray
    Number of dynamic objects   : 11
    Bed channel count           : 1 channel
    Bed channel configuration   : LFE

    Audio #3
    ID                          : 4
    ID in the original source m : 4364 (0x110C)
    Format                      : AC-3
    Format/Info                 : Audio Coding 3
    Commercial name             : Dolby Digital
    Codec ID                    : A_AC3
    Duration                    : 2 h 5 min
    Bit rate mode               : Constant
    Bit rate                    : 640 kb/s
    Channel(s)                  : 6 channels
    Channel layout              : L R C LFE Ls Rs
    Sampling rate               : 48.0 kHz
    Frame rate                  : 31.250 FPS (1536 SPF)
    Compression mode            : Lossy
    Stream size                 : 573 MiB (1%)
    Title                       : Español Latino BD [CinemaniaHDD]
    Language                    : Spanish
    Service kind                : Complete Main
    Default                     : No
    Forced                      : No
    Original source medium      : Blu-ray

    Audio #4
    ID                          : 5
    ID in the original source m : 4352 (0x1100)
    Format                      : AC-3
    Format/Info                 : Audio Coding 3
    Commercial name             : Dolby Digital
    Codec ID                    : A_AC3
    Duration                    : 2 h 5 min
    Bit rate mode               : Constant
    Bit rate                    : 640 kb/s
    Channel(s)                  : 6 channels
    Channel layout              : L R C LFE Ls Rs
    Sampling rate               : 48.0 kHz
    Frame rate                  : 31.250 FPS (1536 SPF)
    Compression mode            : Lossy
    Stream size                 : 573 MiB (1%)
    Title                       : Ingles AC3 [CinemaniaHDD]
    Language                    : English
    Service kind                : Complete Main
    Default                     : No
    Forced                      : No
    Original source medium      : Blu-ray

    Text #1
    ID                          : 6
    ID in the original source m : 4793 (0x12B9)
    Format                      : PGS
    Muxing mode                 : zlib
    Codec ID                    : S_HDMV/PGS
    Codec ID/Info               : Picture based subtitle format used on BDs/HD-DVDs
    Duration                    : 1 h 21 min
    Bit rate                    : 325 b/s
    Count of elements           : 22
    Stream size                 : 194 KiB (0%)
    Title                       : Sub_Forzados [PGS]
    Language                    : Spanish
    Default                     : Yes
    Forced                      : Yes
    Original source medium      : Blu-ray

    Text #2
    ID                          : 7
    ID in the original source m : 4793 (0x12B9)
    Format                      : PGS
    Muxing mode                 : zlib
    Codec ID                    : S_HDMV/PGS
    Codec ID/Info               : Picture based subtitle format used on BDs/HD-DVDs
    Duration                    : 1 h 59 min
    Bit rate                    : 28.3 kb/s
    Count of elements           : 2354
    Stream size                 : 24.1 MiB (0%)
    Title                       : Sub_Esp [PGS]
    Language                    : Spanish
    Default                     : No
    Forced                      : No
    Original source medium      : Blu-ray

    Text #3
    ID                          : 8
    ID in the original source m : 4769 (0x12A1)
    Format                      : PGS
    Muxing mode                 : zlib
    Codec ID                    : S_HDMV/PGS
    Codec ID/Info               : Picture based subtitle format used on BDs/HD-DVDs
    Duration                    : 1 h 59 min
    Bit rate                    : 28.9 kb/s
    Count of elements           : 2258
    Stream size                 : 24.7 MiB (0%)
    Title                       : Sub_Eng [PGS]
    Language                    : English
    Default                     : No
    Forced                      : No
    Original source medium      : Blu-ray

    Text #4
    ID                          : 9
    Format                      : UTF-8
    Codec ID                    : S_TEXT/UTF8
    Codec ID/Info               : UTF-8 Plain Text
    Duration                    : 1 h 21 min
    Bit rate                    : 1 b/s
    Count of elements           : 28
    Stream size                 : 697 Bytes (0%)
    Title                       : Sub_Forzados
    Language                    : Spanish
    Default                     : No
    Forced                      : No

    Text #5
    ID                          : 10
    Format                      : UTF-8
    Codec ID                    : S_TEXT/UTF8
    Codec ID/Info               : UTF-8 Plain Text
    Duration                    : 1 h 59 min
    Bit rate                    : 51 b/s
    Count of elements           : 1178
    Stream size                 : 45.0 KiB (0%)
    Title                       : Sub_Esp
    Language                    : Spanish
    Default                     : No
    Forced                      : No

    Menu
    00:00:00.000                : Chapter 01
    00:08:48.986                : Chapter 02
    00:15:04.612                : Chapter 03
    00:22:48.408                : Chapter 04
    00:30:24.781                : Chapter 05
    00:42:44.061                : Chapter 06
    00:49:51.697                : Chapter 07
    00:56:47.362                : Chapter 08
    01:03:18.628                : Chapter 09
    01:08:37.780                : Chapter 10
    01:22:08.214                : Chapter 11
    01:30:11.697                : Chapter 12
    01:36:27.907                : Chapter 13
    01:45:13.724                : Chapter 14
    01:48:56.321                : Chapter 15
    01:56:41.995                : Chapter 16

  • Peso: 61.0 GiB

Sinopsis

Descargar El Gran Pez (2003) REMUX 4K UHD HDR Latino. «Big Fish» cuenta la historia entre un padre moribundo, Edward Bloom (Albert Finney), y su hijo Will (Ewan McGregor), quien trata de aprender más acerca de su progenitor, reuniendo las distintas historias que este le ha contado. Así, Will recrea su vida en una serie de leyendas y mitos inspirados por los pocos hechos que conoce. Pero a partir del deseo de su madre Sandy, por reunir al padre con su hijo, este comienza a comprender la debacle de su padre. En sus relatos hay viajes alrededor del mundo, y delirios que incluyen gigantes, tornados y brujas.

Audio Español Latino EAC3 5.1 + AC3 5.1 Bluray – Ingles TrueHD 7.1 + AC3 5.1 Bluray

Disponible Solo Para VIP!!! 🙂

Ficha técnica

Video trailer de la película

Enlaces de descarga

Rip de Bluray

Descargar El Gran Pez (2003) REMUX 4K UHD HDR Latino


Aportes de DPeliculasHDmega la pass es:dpeliculashdmega.org Aportes de CinemaniaHD la pass es:cinemaniahdd.com
Guardado en : 4K HDR , 4K UHD , Aventura , Drama , Fantasía , Remux

Películas relacionadas

  • Luca (2021) HD 1080p Latino

    Luca (2021) HD 1080p Latino

    2021
    Luca (2021) HD 1080p Latino

    0.0 1h 41m 2021

    Descargar Luca (2021) HD 1080p Latino. Ambientada en un precioso pueblo costero de la Riviera italiana,...

    Director: Rayna Helgens

    Género: Animación

    Actores: Saverio Raimondo

  • Antonia: Una sinfonía (2018) HD 1080p Latino

    Antonia: Una sinfonía (2018) HD 1080p Latino

    2018
    Antonia: Una sinfonía (2018) HD 1080p Latino

    0.0 2h 17m 2018

    Descargar Antonia: Una sinfonía (2018) HD 1080p Latino. Película basada en la vida de Antonia Brico,...

    Director: Maria Peters

    Género: Drama

    Actores: Tim Ahern

  • Luca (2021) REMUX 1080p Latino

    Luca (2021) REMUX 1080p Latino

    2021
    Luca (2021) REMUX 1080p Latino

    0.0 1h 41m 2021

    Descargar Luca (2021) REMUX 1080p Latino. Ambientada en un precioso pueblo costero de la Riviera italiana,...

    Director: Rayna Helgens

    Género: Animación

    Actores: Saverio Raimondo

  • Antonia: Una sinfonía (2018) REMUX 1080p Latino

    Antonia: Una sinfonía (2018) REMUX 1080p Latino

    2018
    Antonia: Una sinfonía (2018) REMUX 1080p Latino

    0.0 2h 17m 2018

    Descargar Antonia: Una sinfonía (2018) REMUX 1080p Latino. Película basada en la vida de Antonia Brico,...

    Director: Maria Peters

    Género: Drama

    Actores: Tim Ahern

  • Cosa De Hombres (2003) REMUX 1080p Latino

    Cosa De Hombres (2003) REMUX 1080p Latino

    2003
    Cosa De Hombres (2003) REMUX 1080p Latino

    0.0 1h 41m 2003

    Descargar Cosa De Hombres (2003) REMUX 1080p Latino. Paul -Jason Lee- está a punto de casarse con Karen...

    Director: Chris Koch

    Género: Comedia

    Actores: Zahf Paroo

El Gran Pez (2003) REMUX 4K UHD HDR Latino pelicula full hd, El Gran Pez (2003) REMUX 4K UHD HDR Latino mega latino, El Gran Pez (2003) REMUX 4K UHD HDR Latino 4k latino, El Gran Pez (2003) REMUX 4K UHD HDR Latino pelicula completa, El Gran Pez (2003) REMUX 4K UHD HDR Latino descargar gratis, descargar El Gran Pez (2003) REMUX 4K UHD HDR Latino pelicula latino, El Gran Pez (2003) REMUX 4K UHD HDR Latino 1 link mega, El Gran Pez (2003) REMUX 4K UHD HDR Latino 1 link google drive, El Gran Pez (2003) REMUX 4K UHD HDR Latino hd 1080p latino.
Comentarios 0