×

¿Problemas para descargar con Mozilla, EDGE? Deshabilita la opción "Abrir vinculos en una pestaña nueva" tal como lo muestra ésta imagen.

The BFG (2016) REMUX 1080p Latino – CMHDD

147 vistas

Información de The BFG (2016) REMUX 1080p Latino – CMHDD

Datos de la película

  • Calidad:
  • Audio: Español Latino AC3 5.1 BLURAY - Ingles DTS-HD Master 7.1 BLURAY
  • Subtitulos: Español Latino PGS
  • Resolución: 19201080p
  • Formato: MKV
  • Codec: H.264
  • Encoder: Dracarys
  • Mediainfo: Clic para Mostrar Datos Ver
  • Format                      : Matroska
    Format version              : Version 4
    File size                   : 29.3 GiB
    Duration                    : 1 h 57 min
    Overall bit rate mode       : Variable
    Overall bit rate            : 35.6 Mb/s
    Movie name                  : The BFG (2016) REMUX 1080p Latino - CMHDD
    Encoded date                : UTC 2023-10-03 04:37:45
    Writing application         : mkvmerge v47.0.0 ('Black Flag') 64-bit
    Writing library             : libebml v1.3.10 + libmatroska v1.5.2
    Cover                       : Yes
    Attachments                 : cover.jpg

    Video
    ID                          : 1
    ID in the original source m : 4113 (0x1011)
    Format                      : AVC
    Format/Info                 : Advanced Video Codec
    Format profile              : High@L4.1
    Format settings             : CABAC / 4 Ref Frames
    Format settings, CABAC      : Yes
    Format settings, Reference  : 4 frames
    Codec ID                    : V_MPEG4/ISO/AVC
    Duration                    : 1 h 57 min
    Bit rate mode               : Variable
    Bit rate                    : 29.9 Mb/s
    Maximum bit rate            : 36.0 Mb/s
    Width                       : 1 920 pixels
    Height                      : 1 080 pixels
    Display aspect ratio        : 16:9
    Frame rate mode             : Constant
    Frame rate                  : 23.976 (24000/1001) FPS
    Color space                 : YUV
    Chroma subsampling          : 4:2:0
    Bit depth                   : 8 bits
    Scan type                   : Progressive
    Bits/(Pixel*Frame)          : 0.601
    Stream size                 : 24.6 GiB (84%)
    Default                     : Yes
    Forced                      : No
    Original source medium      : Blu-ray

    Audio #1
    ID                          : 2
    ID in the original source m : 4352 (0x1100)
    Format                      : DTS XLL
    Format/Info                 : Digital Theater Systems
    Commercial name             : DTS-HD Master Audio
    Codec ID                    : A_DTS
    Duration                    : 1 h 57 min
    Bit rate mode               : Variable
    Bit rate                    : 4 782 kb/s
    Channel(s)                  : 8 channels
    Channel layout              : C L R LFE Lb Rb Lss Rss
    Sampling rate               : 48.0 kHz
    Frame rate                  : 93.750 FPS (512 SPF)
    Bit depth                   : 24 bits
    Compression mode            : Lossless
    Stream size                 : 3.93 GiB (13%)
    Language                    : English
    Default                     : No
    Forced                      : No
    Original source medium      : Blu-ray

    Audio #2
    ID                          : 3
    ID in the original source m : 4353 (0x1101)
    Format                      : AC-3
    Format/Info                 : Audio Coding 3
    Commercial name             : Dolby Digital
    Format settings             : Dolby Surround
    Codec ID                    : A_AC3
    Duration                    : 1 h 57 min
    Bit rate mode               : Constant
    Bit rate                    : 320 kb/s
    Channel(s)                  : 2 channels
    Channel layout              : L R
    Sampling rate               : 48.0 kHz
    Frame rate                  : 31.250 FPS (1536 SPF)
    Compression mode            : Lossy
    Stream size                 : 269 MiB (1%)
    Language                    : English
    Service kind                : Complete Main
    Default                     : No
    Forced                      : No
    Original source medium      : Blu-ray

    Audio #3
    ID                          : 4
    ID in the original source m : 4355 (0x1103)
    Format                      : AC-3
    Format/Info                 : Audio Coding 3
    Commercial name             : Dolby Digital
    Codec ID                    : A_AC3
    Duration                    : 1 h 57 min
    Bit rate mode               : Constant
    Bit rate                    : 640 kb/s
    Channel(s)                  : 6 channels
    Channel layout              : L R C LFE Ls Rs
    Sampling rate               : 48.0 kHz
    Frame rate                  : 31.250 FPS (1536 SPF)
    Compression mode            : Lossy
    Stream size                 : 539 MiB (2%)
    Language                    : Spanish
    Service kind                : Complete Main
    Default                     : Yes
    Forced                      : No
    Original source medium      : Blu-ray

    Text #1
    ID                          : 5
    ID in the original source m : 4610 (0x1202)
    Format                      : PGS
    Muxing mode                 : zlib
    Codec ID                    : S_HDMV/PGS
    Codec ID/Info               : Picture based subtitle format used on BDs/HD-DVDs
    Duration                    : 1 h 48 min
    Bit rate                    : 20.1 kb/s
    Frame rate                  : 0.272 FPS
    Count of elements           : 1762
    Stream size                 : 15.6 MiB (0%)
    Language                    : Spanish
    Default                     : No
    Forced                      : No
    Original source medium      : Blu-ray

    Text #2
    ID                          : 6
    ID in the original source m : 4612 (0x1204)
    Format                      : PGS
    Muxing mode                 : zlib
    Codec ID                    : S_HDMV/PGS
    Codec ID/Info               : Picture based subtitle format used on BDs/HD-DVDs
    Duration                    : 1 h 37 min
    Bit rate                    : 146 b/s
    Frame rate                  : 0.002 FPS
    Count of elements           : 12
    Stream size                 : 105 KiB (0%)
    Language                    : Spanish
    Default                     : Yes
    Forced                      : No
    Original source medium      : Blu-ray

    Menu
    00:00:00.000                : en:Capítulo 01
    00:07:56.934                : en:Capítulo 02
    00:12:26.704                : en:Capítulo 03
    00:19:27.082                : en:Capítulo 04
    00:23:47.384                : en:Capítulo 05
    00:25:35.492                : en:Capítulo 06
    00:28:43.888                : en:Capítulo 07
    00:37:19.362                : en:Capítulo 08
    00:41:56.263                : en:Capítulo 09
    00:46:21.028                : en:Capítulo 10
    00:52:33.942                : en:Capítulo 11
    00:58:18.077                : en:Capítulo 12
    01:03:33.768                : en:Capítulo 13
    01:12:04.903                : en:Capítulo 14
    01:16:24.329                : en:Capítulo 15
    01:26:29.392                : en:Capítulo 16
    01:36:50.846                : en:Capítulo 17
    01:42:01.615                : en:Capítulo 18
    01:46:37.099                : en:Capítulo 19
    01:49:29.229                : en:Capítulo 20

     

  • Peso: 29.3 GiB

Sinopsis

Adaptación del cuento de Roald Dahl sobre una niña que se alía con la Reina de Inglaterra y con un gigante bonachón para impedir una invasión de malvados gigantes que se preparan para comerse a todos los niños del país.

Ficha técnica

Video trailer de la película

Enlaces de descarga

Rip de Bluray

Descargar The BFG (2016) REMUX 1080p Latino – CMHDD




Aportes de DPeliculasHDmega la pass es:dpeliculashdmega.org Aportes de CinemaniaHD la pass es:cinemaniahdd.com Aportes recientes:cinemaniahdd.net
Guardado en : Aventura , Familia , Fantasía

Películas relacionadas

descargar The BFG (2016) REMUX 1080p Latino – CMHDD 1080p gratis, The BFG (2016) REMUX 1080p Latino – CMHDD mega 1 link, The BFG (2016) REMUX 1080p Latino – CMHDD pelicula completa, descargar The BFG (2016) REMUX 1080p Latino – CMHDD gratis en mega.

The BFG (2016) REMUX 1080p Latino – CMHDD pelicula full hd, The BFG (2016) REMUX 1080p Latino – CMHDD mega latino, The BFG (2016) REMUX 1080p Latino – CMHDD 4k latino, The BFG (2016) REMUX 1080p Latino – CMHDD pelicula completa, The BFG (2016) REMUX 1080p Latino – CMHDD descargar gratis, descargar The BFG (2016) REMUX 1080p Latino – CMHDD pelicula latino, The BFG (2016) REMUX 1080p Latino – CMHDD 1 link mega, The BFG (2016) REMUX 1080p Latino – CMHDD 1 link google drive, The BFG (2016) REMUX 1080p Latino – CMHDD hd 1080p latino.
Comentarios 0