×

¿Problemas para descargar con Mozilla, EDGE? Deshabilita la opción "Abrir vinculos en una pestaña nueva" tal como lo muestra ésta imagen.

The Bermuda Triangle: Into Cursed Waters (2022) Primera Temporada DTVGO WEB-DL 1080p Latino

215 vistas

Información de The Bermuda Triangle: Into Cursed Waters (2022) Primera Temporada DTVGO WEB-DL 1080p Latino

Datos de la película

  • Calidad: 1080p
  • Audio: Español Latino AC3 2.0 WEB-DL - Ingles AC3 2.0 WEB-DL
  • Subtitulos: No
  • Resolución: 1920x1080
  • Formato: MKV
  • Codec: H.264
  • Encoder: cinemaniahdd
  • Mediainfo: Clic para Mostrar Datos Ver
  • The Bermuda Triangle. Into Cursed Waters T01E01 DTVGO WEB-DL 1080p Latino [CNMNHDD].mkv
    Format                      : Matroska
    Format version              : Version 4
    File size                   : 1.96 GiB
    Duration                    : 41 min 20 s
    Overall bit rate mode       : Constant
    Overall bit rate            : 6 771 kb/s
    Movie name                  : Triangulo de las Bermudas. Aguas malditas S01E01 - Un gran hallazgo [1080p] - CinemaniaHDD.Net
    Encoded date                : UTC 2023-07-17 23:04:55
    Writing application         : mkvmerge v56.1.0 ('My Friend') 64-bit
    Writing library             : libebml v1.4.2 + libmatroska v1.6.4

    Video
    ID                          : 1
    Format                      : AVC
    Format/Info                 : Advanced Video Codec
    Format profile              : High@L4
    Format settings             : 1 Ref Frames
    Format settings, CABAC      : No
    Format settings, Reference  : 1 frame
    Format settings, GOP        : M=1, N=30
    Codec ID                    : V_MPEG4/ISO/AVC
    Duration                    : 41 min 20 s
    Bit rate mode               : Constant
    Bit rate                    : 6 000 kb/s
    Width                       : 1 920 pixels
    Height                      : 1 080 pixels
    Display aspect ratio        : 16:9
    Frame rate mode             : Constant
    Frame rate                  : 29.970 (30000/1001) FPS
    Color space                 : YUV
    Chroma subsampling          : 4:2:0
    Bit depth                   : 8 bits
    Scan type                   : Progressive
    Bits/(Pixel*Frame)          : 0.097
    Stream size                 : 1.73 GiB (89%)
    Title                       : CinemaniaHDD
    Default                     : Yes
    Forced                      : No
    Color range                 : Limited
    Color primaries             : BT.601 NTSC
    Transfer characteristics    : BT.601
    Matrix coefficients         : BT.601

    Audio #1
    ID                          : 2
    Format                      : AC-3
    Format/Info                 : Audio Coding 3
    Commercial name             : Dolby Digital
    Codec ID                    : A_AC3
    Duration                    : 41 min 20 s
    Bit rate mode               : Constant
    Bit rate                    : 384 kb/s
    Channel(s)                  : 2 channels
    Channel layout              : L R
    Sampling rate               : 48.0 kHz
    Frame rate                  : 31.250 FPS (1536 SPF)
    Compression mode            : Lossy
    Stream size                 : 114 MiB (6%)
    Title                       : Español Latino [CinemaniaHDD]
    Language                    : Spanish
    Service kind                : Complete Main
    Default                     : Yes
    Forced                      : No

    Audio #2
    ID                          : 3
    Format                      : E-AC-3
    Format/Info                 : Enhanced AC-3
    Commercial name             : Dolby Digital Plus
    Codec ID                    : A_EAC3
    Duration                    : 41 min 20 s
    Bit rate mode               : Constant
    Bit rate                    : 192 kb/s
    Channel(s)                  : 2 channels
    Channel layout              : L R
    Sampling rate               : 48.0 kHz
    Frame rate                  : 31.250 FPS (1536 SPF)
    Compression mode            : Lossy
    Stream size                 : 56.8 MiB (3%)
    Title                       : Español Latino / E-AC3 [CinemaniaHDD]
    Language                    : Spanish
    Service kind                : Complete Main
    Default                     : No
    Forced                      : No

    Audio #3
    ID                          : 4
    Format                      : E-AC-3
    Format/Info                 : Enhanced AC-3
    Commercial name             : Dolby Digital Plus
    Codec ID                    : A_EAC3
    Duration                    : 41 min 20 s
    Bit rate mode               : Constant
    Bit rate                    : 192 kb/s
    Channel(s)                  : 2 channels
    Channel layout              : L R
    Sampling rate               : 48.0 kHz
    Frame rate                  : 31.250 FPS (1536 SPF)
    Compression mode            : Lossy
    Stream size                 : 56.8 MiB (3%)
    Title                       : Inglés [CinemaniaHDD]
    Language                    : English
    Service kind                : Complete Main
    Default                     : No
    Forced                      : No

     

  • Peso: 1.96 GiB Aprox ---- 12 GiB in 6 Chapters.

Sinopsis

El Triángulo de las Bermudas evoca miedo y fascinación. Estas aguas se han tragado barcos, aviones y sus tripulaciones. En el fondo del océano, el equipo de expertos realiza descubrimientos históricos e importantes.

Ficha técnica

  • Titulo original: The Bermuda Triangle: Into Cursed Waters
  • Fecha de lanzamiento: 22-11-2022 (US)
  • Género: Documental, Series

Video trailer de la película

Enlaces de descarga

Rip de Bluray

Descargar The Bermuda Triangle: Into Cursed Waters (2022) Primera Temporada DTVGO WEB-DL 1080p Latino




Aportes de DPeliculasHDmega la pass es:dpeliculashdmega.org Aportes de CinemaniaHD la pass es:cinemaniahdd.com Aportes recientes:cinemaniahdd.net
Guardado en : Documental , Series

Películas relacionadas

descargar The Bermuda Triangle: Into Cursed Waters (2022) Primera Temporada DTVGO WEB-DL 1080p Latino 1080p 1080p gratis, The Bermuda Triangle: Into Cursed Waters (2022) Primera Temporada DTVGO WEB-DL 1080p Latino 1080p mega 1 link, The Bermuda Triangle: Into Cursed Waters (2022) Primera Temporada DTVGO WEB-DL 1080p Latino 1080p serie completa, descargar The Bermuda Triangle: Into Cursed Waters (2022) Primera Temporada DTVGO WEB-DL 1080p Latino 1080p gratis en mega.

The Bermuda Triangle: Into Cursed Waters (2022) Primera Temporada DTVGO WEB-DL 1080p Latino pelicula full hd, The Bermuda Triangle: Into Cursed Waters (2022) Primera Temporada DTVGO WEB-DL 1080p Latino mega latino, The Bermuda Triangle: Into Cursed Waters (2022) Primera Temporada DTVGO WEB-DL 1080p Latino 4k latino, The Bermuda Triangle: Into Cursed Waters (2022) Primera Temporada DTVGO WEB-DL 1080p Latino pelicula completa, The Bermuda Triangle: Into Cursed Waters (2022) Primera Temporada DTVGO WEB-DL 1080p Latino descargar gratis, descargar The Bermuda Triangle: Into Cursed Waters (2022) Primera Temporada DTVGO WEB-DL 1080p Latino pelicula latino, The Bermuda Triangle: Into Cursed Waters (2022) Primera Temporada DTVGO WEB-DL 1080p Latino 1 link mega, The Bermuda Triangle: Into Cursed Waters (2022) Primera Temporada DTVGO WEB-DL 1080p Latino 1 link google drive, The Bermuda Triangle: Into Cursed Waters (2022) Primera Temporada DTVGO WEB-DL 1080p Latino hd 1080p latino.
Comentarios 0