×

¿Problemas para descargar con Mozilla, EDGE? Deshabilita la opción "Abrir vinculos en una pestaña nueva" tal como lo muestra ésta imagen.

The Belko Experiment (2016) 1080p Latino

1.614 vistas

Información de The Belko Experiment (2016) 1080p Latino

the belko experiment 39107 poster

Datos de la película

  • Calidad: 1080p
  • Audio: Español Latino AC3 2.0 Capturado - Ingles AC3 5.1 BLURAY
  • Subtitulos: Español Latino SRT
  • Resolución: 1920X800
  • Formato: MKV
  • Codec: H.264
  • Encoder: CinemaniaHD
  • Mediainfo: Clic para Mostrar Datos Ver
  • Format                                   : Matroska
    Format version                           : Version 4 / Version 2
    File size                                : 2.49 GiB
    Duration                                 : 1 h 28 min
    Overall bit rate                         : 4 021 kb/s
    Movie name                               : CinemaniaHDD.com
    Encoded date                             : UTC 2017-12-16 20:05:27 / UTC 2017-12-16T18:50:06Z
    Writing application                      : mkvmerge v15.0.0 ('Duel with the Devil') 64-bit
    Writing library                          : libebml v1.3.5 + libmatroska v1.4.5 / Lavf57.7.2

    Video
    ID                                       : 1
    Format                                   : AVC
    Format/Info                              : Advanced Video Codec
    Format profile                           : High@L4.1
    Format settings                          : CABAC / 4 Ref Frames
    Format settings, CABAC                   : Yes
    Format settings, RefFrames               : 4 frames
    Codec ID                                 : V_MPEG4/ISO/AVC
    Duration                                 : 1 h 28 min
    Bit rate                                 : 3 500 kb/s
    Width                                    : 1 920 pixels
    Height                                   : 800 pixels
    Display aspect ratio                     : 2.40:1
    Frame rate mode                          : Constant
    Frame rate                               : 23.976 (24000/1001) FPS
    Color space                              : YUV
    Chroma subsampling                       : 4:2:0
    Bit depth                                : 8 bits
    Scan type                                : Progressive
    Bits/(Pixel*Frame)                       : 0.095
    Stream size                              : 2.09 GiB (84%)
    Title                                    : The Belko Experiment (2016) 1080p Latino
    Writing library                          : x264 core 148 r2708 86b7198
    Encoding settings                        : cabac=1 / ref=3 / deblock=1:0:0 / analyse=0x3:0x113 / me=hex / subme=7 / psy=1 / psy_rd=1.00:0.00 / mixed_ref=1 / me_range=16 / chroma_me=1 / trellis=1 / 8x8dct=1 / cqm=0 / deadzone=21,11 / fast_pskip=1 / chroma_qp_offset=-2 / threads=25 / lookahead_threads=4 / sliced_threads=0 / nr=0 / decimate=1 / interlaced=0 / bluray_compat=0 / constrained_intra=0 / bframes=3 / b_pyramid=2 / b_adapt=1 / b_bias=0 / direct=1 / weightb=1 / open_gop=0 / weightp=2 / keyint=240 / keyint_min=24 / scenecut=40 / intra_refresh=0 / rc_lookahead=40 / rc=abr / mbtree=1 / bitrate=3500 / ratetol=1.0 / qcomp=0.60 / qpmin=0 / qpmax=69 / qpstep=4 / vbv_maxrate=62500 / vbv_bufsize=78125 / nal_hrd=none / filler=0 / ip_ratio=1.40 / aq=1:1.00
    Language                                 : English
    Default                                  : Yes
    Forced                                   : No
    Color range                              : Limited
    Color primaries                          : BT.709
    Transfer characteristics                 : BT.709
    Matrix coefficients                      : BT.709
    Statistics Tags Issue                    : mkvmerge v15.0.0 ('Duel with the Devil') 64-bit 2017-12-16 20:05:27 / mkvmerge v15.0.0 ('Duel with the Devil') 64-bit 2017-12-16 20:05:27 / UTC 2017-12-16T18:50:06Z
    FromStats_BitRate                        : 3443767
    FromStats_Duration                       : 01:28:45.320000000
    FromStats_FrameCount                     : 127680
    FromStats_StreamSize                     : 2292395616

    Audio #1
    ID                                       : 2
    Format                                   : AC-3
    Format/Info                              : Audio Coding 3
    Format settings, Endianness              : Big
    Codec ID                                 : A_AC3
    Duration                                 : 1 h 28 min
    Bit rate mode                            : Constant
    Bit rate                                 : 192 kb/s
    Channel(s)                               : 2 channels
    Channel positions                        : Front: L R
    Sampling rate                            : 48.0 kHz
    Frame rate                               : 31.250 FPS (1536 SPF)
    Bit depth                                : 16 bits
    Compression mode                         : Lossy
    Delay relative to video                  : 7 ms
    Stream size                              : 122 MiB (5%)
    Language                                 : Spanish
    Service kind                             : Complete Main
    Default                                  : Yes
    Forced                                   : No
    Statistics Tags Issue                    : mkvmerge v15.0.0 ('Duel with the Devil') 64-bit 2017-12-16 20:05:27 / mkvmerge v15.0.0 ('Duel with the Devil') 64-bit 2017-12-16 20:05:27 / UTC 2017-12-16T18:50:06Z
    FromStats_BitRate                        : 192000
    FromStats_Duration                       : 01:28:08.352000000
    FromStats_FrameCount                     : 165261
    FromStats_StreamSize                     : 126920448

    Audio #2
    ID                                       : 3
    Format                                   : AC-3
    Format/Info                              : Audio Coding 3
    Format settings, Endianness              : Big
    Codec ID                                 : A_AC3
    Duration                                 : 1 h 28 min
    Bit rate mode                            : Constant
    Bit rate                                 : 384 kb/s
    Channel(s)                               : 6 channels
    Channel positions                        : Front: L C R, Side: L R, LFE
    Sampling rate                            : 48.0 kHz
    Frame rate                               : 31.250 FPS (1536 SPF)
    Bit depth                                : 16 bits
    Compression mode                         : Lossy
    Delay relative to video                  : -5 ms
    Stream size                              : 244 MiB (10%)
    Language                                 : English
    Service kind                             : Complete Main
    Default                                  : No
    Forced                                   : No
    Statistics Tags Issue                    : mkvmerge v15.0.0 ('Duel with the Devil') 64-bit 2017-12-16 20:05:27 / mkvmerge v15.0.0 ('Duel with the Devil') 64-bit 2017-12-16 20:05:27 / UTC 2017-12-16T18:50:06Z
    FromStats_BitRate                        : 384000
    FromStats_Duration                       : 01:28:45.312000000
    FromStats_FrameCount                     : 166416
    FromStats_StreamSize                     : 255614976

    Text
    ID                                       : 4
    Format                                   : UTF-8
    Codec ID                                 : S_TEXT/UTF8
    Codec ID/Info                            : UTF-8 Plain Text
    Language                                 : Spanish
    Default                                  : Yes
    Forced                                   : No
    Statistics Tags Issue                    : mkvmerge v15.0.0 ('Duel with the Devil') 64-bit 2017-12-16 20:05:27 / mkvmerge v15.0.0 ('Duel with the Devil') 64-bit 2017-12-16 20:05:27 / UTC 2017-12-16T18:50:06Z
    FromStats_BitRate                        : 47
    FromStats_Duration                       : 01:23:02.320000000
    FromStats_FrameCount                     : 1090
    FromStats_StreamSize                     : 29548

    Menu
    00:00:00.000                             : :00:00:00.000
    00:02:39.993                             : :00:02:39.993
    00:05:19.027                             : :00:05:18.944
    00:09:21.019                             : :00:09:21.019
    00:11:17.969                             : :00:11:17.886
    00:14:06.095                             : :00:14:06.095
    00:16:29.906                             : :00:16:29.906
    00:19:13.778                             : :00:19:13.736
    00:22:43.529                             : :00:22:43.529
    00:24:48.320                             : :00:24:48.320
    00:28:11.565                             : :00:28:11.565
    00:30:31.997                             : :00:30:31.997
    00:33:47.567                             : :00:33:47.442
    00:37:12.313                             : :00:37:12.313
    00:41:57.056                             : :00:41:57.056
    00:44:22.118                             : :00:44:22.118
    00:47:42.026                             : :00:47:42.026
    00:50:24.230                             : :00:50:24.230
    00:53:04.723                             : :00:53:04.723
    00:56:46.445                             : :00:56:46.445
    01:00:59.239                             : :01:00:59.239
    01:03:07.075                             : :01:03:07.075
    01:04:40.794                             : :01:04:40.794
    01:08:04.664                             : :01:08:04.664
    01:10:40.945                             : :01:10:40.945
    01:15:19.557                             : :01:15:19.557
    01:19:18.420                             : :01:19:18.420
    01:24:33.735                             : :01:24:33.652

  • Peso: 2.49 GiB

Sinopsis

Un grupo de 83 americanos expatriados que trabajan en un edificio de Sao Paulo, Brasil, se ven atrapados en su lugar de trabajo mientras una voz les hace plantearse dudas morales sobre qué hacer en situaciones límites.

Ficha técnica

Video trailer de la película

Enlaces de descarga

Rip de Bluray

Descargar The Belko Experiment (2016) 1080p Latino




Aportes de DPeliculasHDmega la pass es:dpeliculashdmega.org Aportes de CinemaniaHD la pass es:cinemaniahdd.com Aportes recientes:cinemaniahdd.net
Guardado en : Acción , Suspenso , Terror

Películas relacionadas

descargar The Belko Experiment (2016) 1080p Latino 1080p 1080p gratis, The Belko Experiment (2016) 1080p Latino 1080p mega 1 link, The Belko Experiment (2016) 1080p Latino 1080p pelicula completa, descargar The Belko Experiment (2016) 1080p Latino 1080p gratis en mega.

The Belko Experiment (2016) 1080p Latino pelicula full hd, The Belko Experiment (2016) 1080p Latino mega latino, The Belko Experiment (2016) 1080p Latino 4k latino, The Belko Experiment (2016) 1080p Latino pelicula completa, The Belko Experiment (2016) 1080p Latino descargar gratis, descargar The Belko Experiment (2016) 1080p Latino pelicula latino, The Belko Experiment (2016) 1080p Latino 1 link mega, The Belko Experiment (2016) 1080p Latino 1 link google drive, The Belko Experiment (2016) 1080p Latino hd 1080p latino.
Comentarios 0