×

¿Problemas para descargar con Mozilla, EDGE? Deshabilita la opción "Abrir vinculos en una pestaña nueva" tal como lo muestra ésta imagen.

The Bee Gees: How Can You Mend a Broken Heart (2020) WEB-DL 1080p Latino

350 vistas

Información de The Bee Gees: How Can You Mend a Broken Heart (2020) WEB-DL 1080p Latino

Datos de la película

  • Calidad: WEBDL
  • Audio: Español Latino AC3 2.0 WEB-DL - Ingles AC3 5.1 WEB-DL
  • Subtitulos: Español Latino SRT - Ingles SRT
  • Resolución: 1920x1080
  • Formato: MKV
  • Codec: H.264
  • Encoder: cinemaniahdd
  • Mediainfo: Clic para Mostrar Datos Ver
  • Alabama Snake (2020) WEB-DL 1080p Latino [CNMNHDD].mkv
    Format                      : Matroska
    Format version              : Version 4
    File size                   : 5.24 GiB
    Duration                    : 1 h 24 min
    Overall bit rate mode       : Variable
    Overall bit rate            : 8 867 kb/s
    Movie name                  : Alabama Snake (2020) - CinemaniaHDD.Net
    Encoded date                : UTC 2020-12-14 01:02:09
    Writing application         : mkvmerge v51.0.0 ('I Wish') 64-bit
    Writing library             : libebml v1.4.0 + libmatroska v1.6.2

    Video
    ID                          : 1
    Format                      : AVC
    Format/Info                 : Advanced Video Codec
    Format profile              : High@L4
    Format settings             : CABAC / 4 Ref Frames
    Format settings, CABAC      : Yes
    Format settings, Reference  : 4 frames
    Codec ID                    : V_MPEG4/ISO/AVC
    Duration                    : 1 h 24 min
    Bit rate mode               : Variable
    Bit rate                    : 8 224 kb/s
    Maximum bit rate            : 12.4 Mb/s
    Width                       : 1 920 pixels
    Height                      : 1 080 pixels
    Display aspect ratio        : 16:9
    Frame rate mode             : Constant
    Frame rate                  : 23.976 (24000/1001) FPS
    Color space                 : YUV
    Chroma subsampling          : 4:2:0
    Bit depth                   : 8 bits
    Scan type                   : Progressive
    Bits/(Pixel*Frame)          : 0.165
    Stream size                 : 4.86 GiB (93%)
    Title                       : CinemaniaHDD
    Language                    : English
    Default                     : Yes
    Forced                      : No
    Color range                 : Limited
    Color primaries             : BT.709
    Transfer characteristics    : BT.709
    Matrix coefficients         : BT.709

    Audio #1
    ID                          : 2
    Format                      : AC-3
    Format/Info                 : Audio Coding 3
    Commercial name             : Dolby Digital
    Codec ID                    : A_AC3
    Duration                    : 1 h 24 min
    Bit rate mode               : Constant
    Bit rate                    : 256 kb/s
    Channel(s)                  : 2 channels
    Channel layout              : L R
    Sampling rate               : 48.0 kHz
    Frame rate                  : 31.250 FPS (1536 SPF)
    Compression mode            : Lossy
    Stream size                 : 155 MiB (3%)
    Title                       : Español latino [CinemaniaHDD]
    Language                    : Spanish
    Service kind                : Complete Main
    Default                     : Yes
    Forced                      : No

    Audio #2
    ID                          : 3
    Format                      : AC-3
    Format/Info                 : Audio Coding 3
    Commercial name             : Dolby Digital
    Codec ID                    : A_AC3
    Duration                    : 1 h 24 min
    Bit rate mode               : Constant
    Bit rate                    : 384 kb/s
    Channel(s)                  : 6 channels
    Channel layout              : L R C LFE Ls Rs
    Sampling rate               : 48.0 kHz
    Frame rate                  : 31.250 FPS (1536 SPF)
    Compression mode            : Lossy
    Stream size                 : 233 MiB (4%)
    Title                       : Inglés [CinemaniaHDD]
    Language                    : English
    Service kind                : Complete Main
    Default                     : No
    Forced                      : No

    Text #1
    ID                          : 4
    Format                      : UTF-8
    Codec ID                    : S_TEXT/UTF8
    Codec ID/Info               : UTF-8 Plain Text
    Duration                    : 1 h 23 min
    Bit rate                    : 89 b/s
    Count of elements           : 1927
    Stream size                 : 54.4 KiB (0%)
    Title                       : Español latino [CC] [CinemaniaHDD]
    Language                    : Spanish
    Default                     : No
    Forced                      : No

    Text #2
    ID                          : 5
    Format                      : UTF-8
    Codec ID                    : S_TEXT/UTF8
    Codec ID/Info               : UTF-8 Plain Text
    Duration                    : 1 h 24 min
    Bit rate                    : 58 b/s
    Count of elements           : 1444
    Stream size                 : 36.2 KiB (0%)
    Title                       : Inglés [CC] [CinemaniaHDD]
    Language                    : English
    Default                     : No
    Forced                      : No

     

  • Peso: 5.24 GiB

Sinopsis

La historia de los triunfos y obstáculos de los hermanos Barry, Maurice y Robin Gibb, también conocidos como los Bee Gees. El trío icónico, que alcanzó la fama temprana en la década de 1960, pasó a escribir más de 1,000 canciones y tuvo 20 éxitos No. 1 a lo largo de su carrera, trascendiendo más de cinco décadas de gustos y estilos cambiantes.

Ficha técnica

  • Titulo original: The Bee Gees: How Can You Mend a Broken Heart
  • Fecha de lanzamiento: 08-10-2020 (United States of America)
  • Director: Frank Marshall
  • Género: Música, Documental

Video trailer de la película

Enlaces de descarga

Rip de Bluray

Descargar The Bee Gees: How Can You Mend a Broken Heart (2020) WEB-DL 1080p Latino




Aportes de DPeliculasHDmega la pass es:dpeliculashdmega.org Aportes de CinemaniaHD la pass es:cinemaniahdd.com
Guardado en : Música , Documental

Películas relacionadas

  • Rainbow (2022) NF WEB-DL 1080p Cast

    Rainbow (2022) NF WEB-DL 1080p Cast

    2022
    Rainbow (2022) NF WEB-DL 1080p Cast

    1h 57m 2022

    Descargar Rainbow (2022) NF WEB-DL 1080p Cast. Una historia contemporánea sobre el paso a la edad adulta...

    Director: Tobias Vergara

    Género: Comedia

    Actores: Wekaforé Jibril

  • Entergalactic (2022) NF WEB-DL 1080p Latino

    Entergalactic (2022) NF WEB-DL 1080p Latino

    2022
    Entergalactic (2022) NF WEB-DL 1080p Latino

    1h 32m 2022

    Descargar Entergalactic (2022) NF WEB-DL 1080p Latino. Después de un encuentro casual con su nuevo vecino...

    Director: Fletcher Moules

    Género: Animación

    Actores: Vanessa Hudgens

  • Yo era famoso (2022) NF WEB-DL 1080p Latino

    Yo era famoso (2022) NF WEB-DL 1080p Latino

    2022
    Yo era famoso (2022) NF WEB-DL 1080p Latino

    1h 44m 2022

    Descargar Yo era famoso (2022) NF WEB-DL 1080p Latino. Vince, una ex estrella del pop desesperada que...

    Director: Júlia Gallart Sunyer

    Género: Comedia

    Actores: Racheal Ofori

  • WWE Evil (2022) Primera Temporada PCOK WEB-DL 1080p Latino

    WWE Evil (2022) Primera Temporada PCOK WEB-DL 1080p Latino

    2022
    WWE Evil (2022) Primera Temporada PCOK WEB-DL 1080p Latino

    0h 45m 2022

    Una "exposición psicológica" de las mentes de los antagonistas más diabólicos en la historia de la...

    Director: John Cena 約翰·希南 江西男,趙喜娜

    Género: Documental

    Actores: John Cena

descargar The Bee Gees: How Can You Mend a Broken Heart (2020) WEB-DL 1080p Latino WEBDL 1080p gratis, The Bee Gees: How Can You Mend a Broken Heart (2020) WEB-DL 1080p Latino WEBDL mega 1 link, The Bee Gees: How Can You Mend a Broken Heart (2020) WEB-DL 1080p Latino WEBDL pelicula completa, descargar The Bee Gees: How Can You Mend a Broken Heart (2020) WEB-DL 1080p Latino WEBDL gratis en mega.

The Bee Gees: How Can You Mend a Broken Heart (2020) WEB-DL 1080p Latino pelicula full hd, The Bee Gees: How Can You Mend a Broken Heart (2020) WEB-DL 1080p Latino mega latino, The Bee Gees: How Can You Mend a Broken Heart (2020) WEB-DL 1080p Latino 4k latino, The Bee Gees: How Can You Mend a Broken Heart (2020) WEB-DL 1080p Latino pelicula completa, The Bee Gees: How Can You Mend a Broken Heart (2020) WEB-DL 1080p Latino descargar gratis, descargar The Bee Gees: How Can You Mend a Broken Heart (2020) WEB-DL 1080p Latino pelicula latino, The Bee Gees: How Can You Mend a Broken Heart (2020) WEB-DL 1080p Latino 1 link mega, The Bee Gees: How Can You Mend a Broken Heart (2020) WEB-DL 1080p Latino 1 link google drive, The Bee Gees: How Can You Mend a Broken Heart (2020) WEB-DL 1080p Latino hd 1080p latino.
Comentarios 0