The Beatles: Eight days a week (2016) 1080p Latino

1.180 vistas
1 estrella2 estrellas3 estrellas4 estrellas5 estrellas (Ninguna valoración todavía)
Cargando…

Información de The Beatles: Eight days a week (2016) 1080p Latino

Datos de la película

  • Calidad: 1080p
  • Audio: Español Latino AC3 2.0 Capturado - Ingles AC3 5.1 BLURAY
  • Subtitulos: Español Latino SRT
  • Resolución: 1920X1080p
  • Formato: MKV
  • Codec: H.264
  • Encoder: CinemaniaHD
  • Mediainfo: Clic para Mostrar Datos Ver
  • Format                                   : Matroska
    Format version                           : Version 4 / Version 2
    File size                                : 3.09 GiB
    Duration                                 : 1 h 45 min
    Overall bit rate                         : 4 172 kb/s
    Movie name                               : CinemaniaHDD.com
    Encoded date                             : UTC 2018-01-09 02:31:19 / UTC 2018-01-09T01:32:22Z
    Writing application                      : mkvmerge v15.0.0 ('Duel with the Devil') 64-bit
    Writing library                          : libebml v1.3.5 + libmatroska v1.4.5 / Lavf57.7.2

    Video
    ID                                       : 1
    Format                                   : AVC
    Format/Info                              : Advanced Video Codec
    Format profile                           : [email protected]
    Format settings                          : CABAC / 4 Ref Frames
    Format settings, CABAC                   : Yes
    Format settings, RefFrames               : 4 frames
    Codec ID                                 : V_MPEG4/ISO/AVC
    Duration                                 : 1 h 45 min
    Bit rate                                 : 3 257 kb/s
    Nominal bit rate                         : 3 500 kb/s
    Width                                    : 1 920 pixels
    Height                                   : 1 080 pixels
    Display aspect ratio                     : 16:9
    Frame rate mode                          : Constant
    Frame rate                               : 23.976 (24000/1001) FPS
    Color space                              : YUV
    Chroma subsampling                       : 4:2:0
    Bit depth                                : 8 bits
    Scan type                                : Progressive
    Bits/(Pixel*Frame)                       : 0.066
    Stream size                              : 2.41 GiB (78%)
    Title                                    : The Beatles Eight days a week (2016) 1080p Latino
    Writing library                          : x264 core 148 r2708 86b7198
    Encoding settings                        : cabac=1 / ref=3 / deblock=1:0:0 / analyse=0x3:0x113 / me=hex / subme=7 / psy=1 / psy_rd=1.00:0.00 / mixed_ref=1 / me_range=16 / chroma_me=1 / trellis=1 / 8x8dct=1 / cqm=0 / deadzone=21,11 / fast_pskip=1 / chroma_qp_offset=-2 / threads=34 / lookahead_threads=5 / sliced_threads=0 / nr=0 / decimate=1 / interlaced=0 / bluray_compat=0 / constrained_intra=0 / bframes=3 / b_pyramid=2 / b_adapt=1 / b_bias=0 / direct=1 / weightb=1 / open_gop=0 / weightp=2 / keyint=240 / keyint_min=24 / scenecut=40 / intra_refresh=0 / rc_lookahead=40 / rc=abr / mbtree=1 / bitrate=3500 / ratetol=1.0 / qcomp=0.60 / qpmin=0 / qpmax=69 / qpstep=4 / vbv_maxrate=62500 / vbv_bufsize=78125 / nal_hrd=none / filler=0 / ip_ratio=1.40 / aq=1:1.00
    Language                                 : English
    Default                                  : Yes
    Forced                                   : No
    Color range                              : Limited
    Color primaries                          : BT.709
    Transfer characteristics                 : BT.709
    Matrix coefficients                      : BT.709
    Statistics Tags Issue                    : mkvmerge v15.0.0 ('Duel with the Devil') 64-bit 2018-01-09 02:31:19 / mkvmerge v15.0.0 ('Duel with the Devil') 64-bit 2018-01-09 02:31:19 / UTC 2018-01-09T01:32:22Z
    FromStats_BitRate                        : 3338915
    FromStats_Duration                       : 01:45:53.764000000
    FromStats_FrameCount                     : 152338
    FromStats_StreamSize                     : 2651835384

    Audio #1
    ID                                       : 2
    Format                                   : AC-3
    Format/Info                              : Audio Coding 3
    Format settings, Endianness              : Big
    Codec ID                                 : A_AC3
    Duration                                 : 1 h 45 min
    Bit rate mode                            : Constant
    Bit rate                                 : 448 kb/s
    Channel(s)                               : 6 channels
    Channel positions                        : Front: L C R, Side: L R, LFE
    Sampling rate                            : 48.0 kHz
    Frame rate                               : 31.250 FPS (1536 SPF)
    Bit depth                                : 16 bits
    Compression mode                         : Lossy
    Delay relative to video                  : 11 s 995 ms
    Stream size                              : 339 MiB (11%)
    Language                                 : Spanish
    Service kind                             : Complete Main
    Default                                  : Yes
    Forced                                   : No
    Statistics Tags Issue                    : mkvmerge v15.0.0 ('Duel with the Devil') 64-bit 2018-01-09 02:31:19 / mkvmerge v15.0.0 ('Duel with the Devil') 64-bit 2018-01-09 02:31:19 / UTC 2018-01-09T01:32:22Z
    FromStats_BitRate                        : 448000
    FromStats_Duration                       : 01:45:41.216000000
    FromStats_FrameCount                     : 198163
    FromStats_StreamSize                     : 355108096

    Audio #2
    ID                                       : 3
    Format                                   : AC-3
    Format/Info                              : Audio Coding 3
    Format settings, Endianness              : Big
    Codec ID                                 : A_AC3
    Duration                                 : 1 h 45 min
    Bit rate mode                            : Constant
    Bit rate                                 : 384 kb/s
    Channel(s)                               : 6 channels
    Channel positions                        : Front: L C R, Side: L R, LFE
    Sampling rate                            : 48.0 kHz
    Frame rate                               : 31.250 FPS (1536 SPF)
    Bit depth                                : 16 bits
    Compression mode                         : Lossy
    Delay relative to video                  : -5 ms
    Stream size                              : 291 MiB (9%)
    Language                                 : English
    Service kind                             : Complete Main
    Default                                  : No
    Forced                                   : No
    Statistics Tags Issue                    : mkvmerge v15.0.0 ('Duel with the Devil') 64-bit 2018-01-09 02:31:19 / mkvmerge v15.0.0 ('Duel with the Devil') 64-bit 2018-01-09 02:31:19 / UTC 2018-01-09T01:32:22Z
    FromStats_BitRate                        : 384000
    FromStats_Duration                       : 01:45:53.728000000
    FromStats_FrameCount                     : 198554
    FromStats_StreamSize                     : 304978944

    Text
    ID                                       : 4
    Format                                   : UTF-8
    Codec ID                                 : S_TEXT/UTF8
    Codec ID/Info                            : UTF-8 Plain Text
    Language                                 : Spanish
    Default                                  : Yes
    Forced                                   : No
    Statistics Tags Issue                    : mkvmerge v15.0.0 ('Duel with the Devil') 64-bit 2018-01-09 02:31:19 / mkvmerge v15.0.0 ('Duel with the Devil') 64-bit 2018-01-09 02:31:19 / UTC 2018-01-09T01:32:22Z
    FromStats_BitRate                        : 96
    FromStats_Duration                       : 01:44:35.615000000
    FromStats_FrameCount                     : 1978
    FromStats_StreamSize                     : 75822

    Menu
    00:00:00.000                             : :Chapter 1
    00:02:00.454                             : :Chapter 2
    00:04:34.149                             : :Chapter 3
    00:09:34.908                             : :Chapter 4
    00:10:54.904                             : :Chapter 5
    00:16:24.567                             : :Chapter 6
    00:19:31.003                             : :Chapter 7
    00:24:10.824                             : :Chapter 8
    00:29:31.687                             : :Chapter 9
    00:33:13.825                             : :Chapter 10
    00:34:09.464                             : :Chapter 11
    00:35:06.938                             : :Chapter 12
    00:37:26.453                             : :Chapter 13
    00:39:07.554                             : :Chapter 14
    00:42:28.838                             : :Chapter 15
    00:51:37.720                             : :Chapter 16
    00:57:21.563                             : :Chapter 17
    01:01:19.676                             : :Chapter 18
    01:03:14.249                             : :Chapter 19
    01:04:48.635                             : :Chapter 20
    01:06:57.347                             : :Chapter 21
    01:10:46.075                             : :Chapter 22
    01:21:27.341                             : :Chapter 23
    01:22:24.690                             : :Chapter 24
    01:35:59.212                             : :Chapter 25

     

  • Peso: 3.09 GiB

Sinopsis

Una recopilación de imágenes con música, entrevistas, y las historias de 250 conciertos de los Beatles, de 1963 a 1966 encontrado.

Ficha técnica

  • Titulo original: The Beatles: Eight Days a Week - The Touring Years
  • Fecha de lanzamiento: 15-09-2016 (United Kingdom, United States of America)
  • Director: Ron Howard
  • Género: Documental, Música
  • Puntuación: 0.0 0 votos
  • Duración:
    1 h 45 min

Video trailer de la película

Enlaces de descarga

Rip de Bluray

Descargar The Beatles: Eight days a week (2016) 1080p Latino




Aportes de DPeliculasHDmega la pass es:dpeliculashdmega.org Aportes de CinemaniaHD la pass es:cinemaniahdd.com
Guardado en : Documental , Música

Películas relacionadas

  • Green Book (2018) 1080p Subtitulado

    2018
    Green Book (2018) 1080p Subtitulado

    4.5 2h 10m 2018

    Descargar Green Book (2018) 1080p Subtitulado. Años 60. Cuando Tony Lip (Viggo Mortensen), un rudo italoamericano...

    Director: Peter Farrelly

    Género: Comedia

    Actores: William E. Harris

  • Bohemian Rhapsody (2018) REMUX 1080p Latino

    2018
    Bohemian Rhapsody (2018) REMUX 1080p Latino

    5.0 2h 14m 2018

    Bohemian Rhapsody es una rotunda y sonora celebración de Queen, de su música y de su extraordinario...

    Director: Rowena Ladbury

    Género: Drama

    Actores: William Owen

  • The Dirt (2019) NF WEB-DL 1080p Latino

    2019
    The Dirt (2019) NF WEB-DL 1080p Latino

    0.0 0h 0m 2019

    Basada en la autobiografía publicada por el grupo Mötley Crüe en 2001, esta obra refleja la historia...

    Director: Jeff Tremaine

    Género: Drama

    Actores: Vince Mattis

Comentarios 0