×

¿Problemas para descargar con Mozilla, EDGE? Deshabilita la opción "Abrir vinculos en una pestaña nueva" tal como lo muestra ésta imagen.

Los juegos del hambre: La balada de pájaros cantores y serpientes (2023) Full HD 1080p Latino-CMHDD

219 vistas

Información de Los juegos del hambre: La balada de pájaros cantores y serpientes (2023) Full HD 1080p Latino-CMHDD

Datos de la película

  • Calidad: Full 1080p
  • Audio: Español Latino AC3 5.1 BLURAY - Ingles DTS 5.1 BLURAY
  • Subtitulos: Español Latino PGS - Ingles PGS
  • Resolución: 1920x1080p
  • Formato: MKV
  • Codec: H.264
  • Encoder: CinefiloCool
  • Mediainfo: Clic para Mostrar Datos Ver
  • THG.The.Ballad.Of.Songbirds.And.Snakes.2023.Bluray.FullHD.1080p.x264.Latino-CC@CMHDD.mkv
    Format                      : Matroska
    Format version              : Version 4
    File size                   : 6.97 GiB
    Duration                    : 2 h 37 min
    Overall bit rate            : 6 348 kb/s
    Movie name                  : The Hunger Games. The Ballad Of Songbirds And Snakes (2023) CinemaniaHDD.Net
    Encoded date                : UTC 2024-02-06 17:17:52
    Writing application         : mkvmerge v56.1.0 ('My Friend') 64-bit
    Writing library             : libebml v1.4.2 + libmatroska v1.6.4
    Cover                       : Yes
    Attachments                 : cover.jpg / CINEMANIAHD.png

    Video
    ID                          : 1
    Format                      : AVC
    Format/Info                 : Advanced Video Codec
    Format profile              : High@L4.1
    Format settings             : CABAC / 4 Ref Frames
    Format settings, CABAC      : Yes
    Format settings, Reference  : 4 frames
    Codec ID                    : V_MPEG4/ISO/AVC
    Duration                    : 2 h 37 min
    Bit rate                    : 3 515 kb/s
    Width                       : 1 920 pixels
    Height                      : 1 080 pixels
    Display aspect ratio        : 16:9
    Frame rate mode             : Constant
    Frame rate                  : 23.976 (24000/1001) FPS
    Color space                 : YUV
    Chroma subsampling          : 4:2:0
    Bit depth                   : 8 bits
    Scan type                   : Progressive
    Bits/(Pixel*Frame)          : 0.071
    Stream size                 : 3.86 GiB (55%)
    Title                       : Full HD1080p [CinemaniaHDD]
    Writing library             : x264 core 163 r3059 b684ebe0
    Encoding settings           : cabac=1 / ref=4 / deblock=1:0:0 / analyse=0x3:0x133 / me=tesa / subme=11 / psy=1 / psy_rd=1.00:0.00 / mixed_ref=1 / me_range=24 / chroma_me=1 / trellis=2 / 8x8dct=1 / cqm=0 / deadzone=21,11 / fast_pskip=0 / chroma_qp_offset=-2 / threads=24 / lookahead_threads=6 / sliced_threads=0 / nr=0 / decimate=1 / interlaced=0 / bluray_compat=0 / constrained_intra=0 / bframes=16 / b_pyramid=2 / b_adapt=2 / b_bias=0 / direct=3 / weightb=1 / open_gop=0 / weightp=2 / keyint=240 / keyint_min=24 / scenecut=40 / intra_refresh=0 / rc_lookahead=60 / rc=crf / mbtree=1 / crf=20.0 / qcomp=0.60 / qpmin=0 / qpmax=69 / qpstep=4 / vbv_maxrate=62500 / vbv_bufsize=78125 / crf_max=0.0 / nal_hrd=none / filler=0 / ip_ratio=1.40 / aq=1:1.00
    Default                     : Yes
    Forced                      : No
    Color range                 : Limited
    Color primaries             : BT.709
    Transfer characteristics    : BT.709
    Matrix coefficients         : BT.709

    Audio #1
    ID                          : 2
    ID in the original source m : 4354 (0x1102)
    Format                      : AC-3
    Format/Info                 : Audio Coding 3
    Commercial name             : Dolby Digital
    Codec ID                    : A_AC3
    Duration                    : 2 h 37 min
    Bit rate mode               : Constant
    Bit rate                    : 640 kb/s
    Channel(s)                  : 6 channels
    Channel layout              : L R C LFE Ls Rs
    Sampling rate               : 48.0 kHz
    Frame rate                  : 31.250 FPS (1536 SPF)
    Compression mode            : Lossy
    Stream size                 : 719 MiB (10%)
    Title                       : Español Latino AC3 [CinemaniaHDD]
    Language                    : Spanish
    Service kind                : Complete Main
    Default                     : Yes
    Forced                      : Yes
    Original source medium      : Blu-ray

    Audio #2
    ID                          : 3
    Format                      : E-AC-3
    Format/Info                 : Enhanced AC-3
    Commercial name             : Dolby Digital Plus
    Codec ID                    : A_EAC3
    Duration                    : 2 h 37 min
    Bit rate mode               : Constant
    Bit rate                    : 640 kb/s
    Channel(s)                  : 6 channels
    Channel layout              : L R C LFE Ls Rs
    Sampling rate               : 48.0 kHz
    Frame rate                  : 31.250 FPS (1536 SPF)
    Compression mode            : Lossy
    Stream size                 : 719 MiB (10%)
    Title                       : Español Latino DDP [CinemaniaHDD]
    Language                    : Spanish
    Service kind                : Complete Main
    Default                     : No
    Forced                      : No

    Audio #3
    ID                          : 4
    Format                      : DTS
    Format/Info                 : Digital Theater Systems
    Codec ID                    : A_DTS
    Duration                    : 2 h 37 min
    Bit rate mode               : Constant
    Bit rate                    : 1 509 kb/s
    Channel(s)                  : 6 channels
    Channel layout              : C L R Ls Rs LFE
    Sampling rate               : 48.0 kHz
    Frame rate                  : 93.750 FPS (512 SPF)
    Bit depth                   : 16 bits
    Compression mode            : Lossy
    Stream size                 : 1.66 GiB (24%)
    Title                       : Ingles [CinemaniaHDD]
    Language                    : English
    Default                     : No
    Forced                      : No

    Text #1
    ID                          : 5
    Format                      : PGS
    Muxing mode                 : zlib
    Codec ID                    : S_HDMV/PGS
    Codec ID/Info               : Picture based subtitle format used on BDs/HD-DVDs
    Duration                    : 2 h 18 min
    Bit rate                    : 2 921 b/s
    Count of elements           : 340
    Stream size                 : 2.90 MiB (0%)
    Title                       : Forzados-PGS [CinemaniaHDD]
    Language                    : Spanish
    Default                     : No
    Forced                      : No

    Text #2
    ID                          : 6
    ID in the original source m : 4609 (0x1201)
    Format                      : PGS
    Muxing mode                 : zlib
    Codec ID                    : S_HDMV/PGS
    Codec ID/Info               : Picture based subtitle format used on BDs/HD-DVDs
    Duration                    : 2 h 26 min
    Bit rate                    : 34.5 kb/s
    Count of elements           : 3934
    Stream size                 : 36.2 MiB (1%)
    Title                       : Español-PGS [CinemaniaHDD]
    Language                    : Spanish
    Default                     : No
    Forced                      : No
    Original source medium      : Blu-ray

    Text #3
    ID                          : 7
    ID in the original source m : 4608 (0x1200)
    Format                      : PGS
    Muxing mode                 : zlib
    Codec ID                    : S_HDMV/PGS
    Codec ID/Info               : Picture based subtitle format used on BDs/HD-DVDs
    Duration                    : 2 h 36 min
    Bit rate                    : 42.8 kb/s
    Count of elements           : 5308
    Stream size                 : 47.8 MiB (1%)
    Title                       : Ingles-PGS [CinemaniaHDD]
    Language                    : English
    Default                     : No
    Forced                      : No
    Original source medium      : Blu-ray

    Text #4
    ID                          : 8
    Format                      : UTF-8
    Codec ID                    : S_TEXT/UTF8
    Codec ID/Info               : UTF-8 Plain Text
    Duration                    : 2 h 17 min
    Bit rate                    : 3 b/s
    Count of elements           : 158
    Stream size                 : 3.93 KiB (0%)
    Title                       : Forzados-SRT [CinemaniaHDD]
    Language                    : Spanish
    Default                     : Yes
    Forced                      : Yes

    Text #5
    ID                          : 9
    Format                      : UTF-8
    Codec ID                    : S_TEXT/UTF8
    Codec ID/Info               : UTF-8 Plain Text
    Duration                    : 2 h 26 min
    Bit rate                    : 55 b/s
    Count of elements           : 2088
    Stream size                 : 59.4 KiB (0%)
    Title                       : Español-SRT [CinemaniaHDD]
    Language                    : Spanish
    Default                     : No
    Forced                      : No

    Menu
    00:00:00.000                : Chapter 01
    00:12:36.505                : Chapter 02
    00:24:22.586                : Chapter 03
    00:34:06.002                : Chapter 04
    00:46:53.936                : Chapter 05
    00:56:09.741                : Chapter 06
    01:08:28.437                : Chapter 07
    01:19:22.424                : Chapter 08
    01:26:41.112                : Chapter 09
    01:33:59.508                : Chapter 10
    01:40:45.706                : Chapter 11
    01:47:35.657                : Chapter 12
    01:54:55.680                : Chapter 13
    02:05:09.543                : Chapter 14
    02:13:03.392                : Chapter 15
    02:19:05.795                : Chapter 16

  • Peso: 6.97 GiB

Sinopsis

Descargar Los juegos del hambre: La balada de pájaros cantores y serpientes (2023) Full HD 1080p Latino-CMHDD. Ambientada en un Panem postapocalíptico, nos hace retroceder varias décadas antes del comienzo de las aventuras de Katniss Everdeen. El joven Coriolanus Snow será el mentor de Lucy Gray Baird, la niña seleccionada como tributo del empobrecido Distrito 12. La joven sorprenderá a todos al cantar en la ceremonia de inauguración de los Décimos Juegos del Hambre en los que Snow intentará aprovecharse de su talento y encanto para sobrevivir.

Ficha técnica

Video trailer de la película

Enlaces de descarga

Rip de Bluray

Descargar Los juegos del hambre: La balada de pájaros cantores y serpientes (2023) Full HD 1080p Latino-CMHDD




Aportes de DPeliculasHDmega la pass es:dpeliculashdmega.org Aportes de CinemaniaHD la pass es:cinemaniahdd.com Aportes recientes:cinemaniahdd.net

Películas relacionadas

descargar Los juegos del hambre: La balada de pájaros cantores y serpientes (2023) Full HD 1080p Latino-CMHDD Full 1080p 1080p gratis, Los juegos del hambre: La balada de pájaros cantores y serpientes (2023) Full HD 1080p Latino-CMHDD Full 1080p mega 1 link, Los juegos del hambre: La balada de pájaros cantores y serpientes (2023) Full HD 1080p Latino-CMHDD Full 1080p pelicula completa, descargar Los juegos del hambre: La balada de pájaros cantores y serpientes (2023) Full HD 1080p Latino-CMHDD Full 1080p gratis en mega.

Los juegos del hambre: La balada de pájaros cantores y serpientes (2023) Full HD 1080p Latino-CMHDD pelicula full hd, Los juegos del hambre: La balada de pájaros cantores y serpientes (2023) Full HD 1080p Latino-CMHDD mega latino, Los juegos del hambre: La balada de pájaros cantores y serpientes (2023) Full HD 1080p Latino-CMHDD 4k latino, Los juegos del hambre: La balada de pájaros cantores y serpientes (2023) Full HD 1080p Latino-CMHDD pelicula completa, Los juegos del hambre: La balada de pájaros cantores y serpientes (2023) Full HD 1080p Latino-CMHDD descargar gratis, descargar Los juegos del hambre: La balada de pájaros cantores y serpientes (2023) Full HD 1080p Latino-CMHDD pelicula latino, Los juegos del hambre: La balada de pájaros cantores y serpientes (2023) Full HD 1080p Latino-CMHDD 1 link mega, Los juegos del hambre: La balada de pájaros cantores y serpientes (2023) Full HD 1080p Latino-CMHDD 1 link google drive, Los juegos del hambre: La balada de pájaros cantores y serpientes (2023) Full HD 1080p Latino-CMHDD hd 1080p latino.
Comentarios 0