×

¿Problemas para descargar con Mozilla, EDGE? Deshabilita la opción "Abrir vinculos en una pestaña nueva" tal como lo muestra ésta imagen.

The Bad Guys (2022) REMUX 4K HDR Latino – CMHDD

201 vistas

Información de The Bad Guys (2022) REMUX 4K HDR Latino – CMHDD

Datos de la película

  • Calidad: 4K HDR
  • Audio: Se especifica abajo de la Sinopsis
  • Subtitulos: Español Latino PGS
  • Resolución: 3840x2160p
  • Formato: MKV
  • Codec: H.264
  • Encoder: Dracarys
  • Mediainfo: Clic para Mostrar Datos Ver
  • Format                      : Matroska
    Format version              : Version 4
    File size                   : 42.4 GiB
    Duration                    : 1 h 40 min
    Overall bit rate mode       : Variable
    Overall bit rate            : 60.6 Mb/s
    Movie name                  : The Bad Guys (2022) REMUX 4K HDR Latino - CMHDD
    Encoded date                : UTC 2022-06-29 01:38:44
    Writing application         : mkvmerge v17.0.0 ('Be Ur Friend') 64-bit
    Writing library             : libebml v1.3.5 + libmatroska v1.4.8

    Video
    ID                          : 1
    Format                      : HEVC
    Format/Info                 : High Efficiency Video Coding
    Format profile              : Main 10@L5.1@High
    HDR format                  : SMPTE ST 2086, HDR10 compatible
    Codec ID                    : V_MPEGH/ISO/HEVC
    Duration                    : 1 h 40 min
    Bit rate                    : 56.1 Mb/s
    Width                       : 3 840 pixels
    Height                      : 2 160 pixels
    Display aspect ratio        : 16:9
    Frame rate mode             : Constant
    Frame rate                  : 23.976 (24000/1001) FPS
    Color space                 : YUV
    Chroma subsampling          : 4:2:0 (Type 2)
    Bit depth                   : 10 bits
    Bits/(Pixel*Frame)          : 0.282
    Stream size                 : 39.2 GiB (93%)
    Default                     : Yes
    Forced                      : No
    Color range                 : Limited
    Color primaries             : BT.2020
    Transfer characteristics    : PQ
    Matrix coefficients         : BT.2020 non-constant
    Mastering display color pri : Display P3
    Mastering display luminance : min: 0.0050 cd/m2, max: 1000 cd/m2
    Maximum Content Light Level : 815 cd/m2
    Maximum Frame-Average Light : 124 cd/m2

    Audio #1
    ID                          : 2
    Format                      : MLP FBA 16-ch
    Format/Info                 : Meridian Lossless Packing FBA with 16-channel presentation
    Commercial name             : Dolby TrueHD with Dolby Atmos
    Codec ID                    : A_TRUEHD
    Duration                    : 1 h 40 min
    Bit rate mode               : Variable
    Bit rate                    : 3 166 kb/s
    Maximum bit rate            : 4 686 kb/s
    Channel(s)                  : 8 channels
    Channel layout              : L R C LFE Ls Rs Lb Rb
    Sampling rate               : 48.0 kHz
    Frame rate                  : 1 200.000 FPS (40 SPF)
    Compression mode            : Lossless
    Stream size                 : 2.21 GiB (5%)
    Language                    : English
    Default                     : No
    Forced                      : No
    Number of dynamic objects   : 11
    Bed channel count           : 1 channel
    Bed channel configuration   : LFE

    Audio #2
    ID                          : 3
    Format                      : AC-3
    Format/Info                 : Audio Coding 3
    Commercial name             : Dolby Digital
    Codec ID                    : A_AC3
    Duration                    : 1 h 40 min
    Bit rate mode               : Constant
    Bit rate                    : 448 kb/s
    Channel(s)                  : 6 channels
    Channel layout              : L R C LFE Ls Rs
    Sampling rate               : 48.0 kHz
    Frame rate                  : 31.250 FPS (1536 SPF)
    Compression mode            : Lossy
    Stream size                 : 321 MiB (1%)
    Language                    : English
    Service kind                : Complete Main
    Default                     : No
    Forced                      : No

    Audio #3
    ID                          : 4
    Format                      : E-AC-3
    Format/Info                 : Enhanced AC-3
    Commercial name             : Dolby Digital Plus
    Format profile              : Blu-ray Disc
    Codec ID                    : A_EAC3
    Duration                    : 1 h 40 min
    Bit rate mode               : Constant
    Bit rate                    : 768 kb/s
    Channel(s)                  : 6 channels
    Channel(s)_Original         : 8 channels
    ChannelLayout_Original      : L R C LFE Ls Rs Lrs Rrs
    Sampling rate               : 48.0 kHz
    Frame rate                  : 31.250 FPS (1536 SPF)
    Compression mode            : Lossy
    Stream size                 : 550 MiB (1%)
    Language                    : Spanish
    Service kind                : Complete Main
    Default                     : Yes
    Forced                      : No

    Text #1
    ID                          : 5
    Format                      : PGS
    Muxing mode                 : zlib
    Codec ID                    : S_HDMV/PGS
    Codec ID/Info               : Picture based subtitle format used on BDs/HD-DVDs
    Duration                    : 1 h 39 min
    Bit rate                    : 48.1 kb/s
    Count of elements           : 3378
    Stream size                 : 34.2 MiB (0%)
    Language                    : Spanish
    Default                     : No
    Forced                      : No

    Text #2
    ID                          : 6
    Format                      : PGS
    Muxing mode                 : zlib
    Codec ID                    : S_HDMV/PGS
    Codec ID/Info               : Picture based subtitle format used on BDs/HD-DVDs
    Duration                    : 1 h 39 min
    Bit rate                    : 868 b/s
    Count of elements           : 48
    Stream size                 : 631 KiB (0%)
    Language                    : Spanish
    Default                     : No
    Forced                      : No

    Menu
    00:00:00.000                : en:Chapter 1
    00:03:09.439                : en:Chapter 2
    00:09:08.965                : en:Chapter 3
    00:14:07.847                : en:Chapter 4
    00:20:35.484                : en:Chapter 5
    00:27:24.976                : en:Chapter 6
    00:32:08.927                : en:Chapter 7
    00:36:16.549                : en:Chapter 8
    00:41:26.775                : en:Chapter 9
    00:45:50.164                : en:Chapter 10
    00:49:08.820                : en:Chapter 11
    00:55:01.089                : en:Chapter 12
    00:58:38.890                : en:Chapter 13
    01:05:41.020                : en:Chapter 14
    01:10:36.232                : en:Chapter 15
    01:12:40.439                : en:Chapter 16
    01:15:45.165                : en:Chapter 17
    01:20:25.195                : en:Chapter 18
    01:25:28.832                : en:Chapter 19
    01:30:56.325                : en:Chapter 20

  • Peso: 42.4 GiB

Sinopsis

Cinco villanos notorios: el Sr. Lobo, Sr. Serpiente, Sr. Piraña, Sr. Tiburón y Srta. Tarántula, que han pasado toda una vida juntos realizando grandes atracos.

 

Latino: E-AC3 7.1  –  Inglés: TuueHD 7.1 

Ficha técnica

Video trailer de la película

Enlaces de descarga

Rip de Bluray

Descargar The Bad Guys (2022) REMUX 4K HDR Latino – CMHDD


Aportes de DPeliculasHDmega la pass es:dpeliculashdmega.org Aportes de CinemaniaHD la pass es:cinemaniahdd.com
Guardado en : Animación , Comedia , Crimen , Familia

Películas relacionadas

  • Abuelos Principiantes (2020) HD 1080p Latino

    Abuelos Principiantes (2020) HD 1080p Latino

    2020
    Abuelos Principiantes (2020) HD 1080p Latino

    1h 44m 2020

    Descargar Abuelos Principiantes (2020) HD 1080p Latino. Un grupo de jubilados quiere escapar del aburrimiento...

    Director: Wolfgang Groos

    Género: Comedia

    Actores: Sabine Barth

  • Abuelos Principiantes (2020) REMUX 1080p Latino

    Abuelos Principiantes (2020) REMUX 1080p Latino

    2020
    Abuelos Principiantes (2020) REMUX 1080p Latino

    1h 44m 2020

    Descargar Abuelos Principiantes (2020) REMUX 1080p Latino. Un grupo de jubilados quiere escapar del aburrimiento...

    Director: Wolfgang Groos

    Género: Comedia

    Actores: Sabine Barth

  • Animal Kingdom (2010) REMUX 1080p Latino

    Animal Kingdom (2010) REMUX 1080p Latino

    2010
    Animal Kingdom (2010) REMUX 1080p Latino

    1h 55m 2010

    Tras la muerte de su madre, Joshua “J” Cody, tiene que trasladarse a casa de su abuela Janine, que...

    Director: David Michôd

    Género: Crimen

    Actores: Tim Phillipps

The Bad Guys (2022) REMUX 4K HDR Latino – CMHDD pelicula full hd, The Bad Guys (2022) REMUX 4K HDR Latino – CMHDD mega latino, The Bad Guys (2022) REMUX 4K HDR Latino – CMHDD 4k latino, The Bad Guys (2022) REMUX 4K HDR Latino – CMHDD pelicula completa, The Bad Guys (2022) REMUX 4K HDR Latino – CMHDD descargar gratis, descargar The Bad Guys (2022) REMUX 4K HDR Latino – CMHDD pelicula latino, The Bad Guys (2022) REMUX 4K HDR Latino – CMHDD 1 link mega, The Bad Guys (2022) REMUX 4K HDR Latino – CMHDD 1 link google drive, The Bad Guys (2022) REMUX 4K HDR Latino – CMHDD hd 1080p latino.
Comentarios 0