×

¿Problemas para descargar con Mozilla, EDGE? Deshabilita la opción "Abrir vinculos en una pestaña nueva" tal como lo muestra ésta imagen.

The Bad Guy (2022) Primera Temporada AMZN WEB-DL 1080p Latino

37 vistas

Información de The Bad Guy (2022) Primera Temporada AMZN WEB-DL 1080p Latino

Datos de la película

  • Calidad: 1080p
  • Audio: Español Latino AC3 5.1 WEB-DL - Ingles AC3 5.1 WEB-DL
  • Subtitulos: Español Latino SRT- FORZADOS SRT
  • Resolución: 1920x1080
  • Formato: MKV
  • Codec: H.264
  • Encoder: cinemaniahdd
  • Mediainfo: Clic para Mostrar Datos Ver
  • The Bad Guy T01E01 AMZN WEB-DL 1080p Latino [CNMNHDD].mkv
    Format                      : Matroska
    Format version              : Version 4
    File size                   : 3.14 GiB
    Duration                    : 54 min 45 s
    Overall bit rate            : 8 214 kb/s
    Movie name                  : The Bad Guy S01E01 - The good magistrate [1080p] - CinemaniaHDD.Net
    Encoded date                : UTC 2022-12-15 00:58:50
    Writing application         : mkvmerge v56.1.0 ('My Friend') 64-bit
    Writing library             : libebml v1.4.2 + libmatroska v1.6.4

    Video
    ID                          : 1
    Format                      : AVC
    Format/Info                 : Advanced Video Codec
    Format profile              : High@L4
    Format settings             : CABAC / 4 Ref Frames
    Format settings, CABAC      : Yes
    Format settings, Reference  : 4 frames
    Codec ID                    : V_MPEG4/ISO/AVC
    Duration                    : 54 min 45 s
    Bit rate mode               : Constant
    Bit rate                    : 6 291 kb/s
    Nominal bit rate            : 10 000 kb/s
    Width                       : 1 920 pixels
    Height                      : 800 pixels
    Display aspect ratio        : 2.40:1
    Frame rate mode             : Constant
    Frame rate                  : 24.000 FPS
    Color space                 : YUV
    Chroma subsampling          : 4:2:0
    Bit depth                   : 8 bits
    Scan type                   : Progressive
    Bits/(Pixel*Frame)          : 0.171
    Stream size                 : 2.41 GiB (77%)
    Title                       : CinemaniaHDD
    Default                     : Yes
    Forced                      : No
    Color range                 : Limited
    Color primaries             : BT.709
    Transfer characteristics    : BT.709
    Matrix coefficients         : BT.709

    Audio #1
    ID                          : 2
    Format                      : AC-3
    Format/Info                 : Audio Coding 3
    Commercial name             : Dolby Digital
    Codec ID                    : A_AC3
    Duration                    : 54 min 45 s
    Bit rate mode               : Constant
    Bit rate                    : 640 kb/s
    Channel(s)                  : 6 channels
    Channel layout              : L R C LFE Ls Rs
    Sampling rate               : 48.0 kHz
    Frame rate                  : 31.250 FPS (1536 SPF)
    Compression mode            : Lossy
    Stream size                 : 251 MiB (8%)
    Title                       : Español latino [CinemaniaHDD]
    Language                    : Spanish
    Service kind                : Complete Main
    Default                     : Yes
    Forced                      : No

    Audio #2
    ID                          : 3
    Format                      : E-AC-3
    Format/Info                 : Enhanced AC-3
    Commercial name             : Dolby Digital Plus
    Codec ID                    : A_EAC3
    Duration                    : 54 min 45 s
    Bit rate mode               : Constant
    Bit rate                    : 640 kb/s
    Channel(s)                  : 6 channels
    Channel layout              : L R C LFE Ls Rs
    Sampling rate               : 48.0 kHz
    Frame rate                  : 31.250 FPS (1536 SPF)
    Compression mode            : Lossy
    Stream size                 : 251 MiB (8%)
    Title                       : Español latino / E-AC3 [CinemaniaHDD]
    Language                    : Spanish
    Service kind                : Complete Main
    Default                     : No
    Forced                      : No

    Audio #3
    ID                          : 4
    Format                      : E-AC-3
    Format/Info                 : Enhanced AC-3
    Commercial name             : Dolby Digital Plus
    Codec ID                    : A_EAC3
    Duration                    : 54 min 45 s
    Bit rate mode               : Constant
    Bit rate                    : 640 kb/s
    Channel(s)                  : 6 channels
    Channel layout              : L R C LFE Ls Rs
    Sampling rate               : 48.0 kHz
    Frame rate                  : 31.250 FPS (1536 SPF)
    Compression mode            : Lossy
    Stream size                 : 251 MiB (8%)
    Title                       : Inglés [CinemaniaHDD]
    Language                    : English
    Service kind                : Complete Main
    Default                     : No
    Forced                      : No

    Text #1
    ID                          : 5
    Format                      : UTF-8
    Codec ID                    : S_TEXT/UTF8
    Codec ID/Info               : UTF-8 Plain Text
    Duration                    : 48 min 23 s
    Bit rate                    : 1 b/s
    Count of elements           : 12
    Stream size                 : 395 Bytes (0%)
    Title                       : Forzados [CinemaniaHDD]
    Language                    : Spanish
    Default                     : No
    Forced                      : Yes

    Text #2
    ID                          : 6
    Format                      : UTF-8
    Codec ID                    : S_TEXT/UTF8
    Codec ID/Info               : UTF-8 Plain Text
    Duration                    : 52 min 39 s
    Bit rate                    : 47 b/s
    Count of elements           : 553
    Stream size                 : 18.2 KiB (0%)
    Title                       : Español latino [CinemaniaHDD]
    Language                    : Spanish
    Default                     : No
    Forced                      : No

    Text #3
    ID                          : 7
    Format                      : UTF-8
    Codec ID                    : S_TEXT/UTF8
    Codec ID/Info               : UTF-8 Plain Text
    Duration                    : 50 min 57 s
    Bit rate                    : 47 b/s
    Count of elements           : 550
    Stream size                 : 17.6 KiB (0%)
    Title                       : Inglés [CinemaniaHDD]
    Language                    : English
    Default                     : No
    Forced                      : No

    Menu
    00:00:00.000                : :Prime Video
    00:00:06.000                : :Warning
    00:00:16.000                : :Scene 3
    00:02:59.000                : :Title Sequence
    00:03:08.000                : :Scene 5
    00:06:44.000                : :Scene 6
    00:10:32.000                : :Scene 7
    00:12:34.000                : :Scene 8
    00:14:20.000                : :Scene 9
    00:16:22.000                : :Scene 10
    00:17:24.000                : :Scene 11
    00:19:51.000                : :Scene 12
    00:20:44.000                : :Scene 13
    00:21:56.000                : :Scene 14
    00:22:44.000                : :Scene 15
    00:23:59.000                : :Scene 16
    00:25:30.000                : :Scene 17
    00:27:27.000                : :Scene 18
    00:29:01.000                : :Scene 19
    00:31:21.000                : :Scene 20
    00:33:10.000                : :Scene 21
    00:35:24.000                : :Scene 22
    00:38:29.000                : :Scene 23
    00:40:35.000                : :Scene 24
    00:41:26.000                : :Scene 25
    00:43:46.000                : :Scene 26
    00:47:51.000                : :Scene 27
    00:49:40.000                : :Scene 28
    00:51:21.000                : :Title Sequence
    00:51:27.000                : :Next On
    00:52:02.000                : :End Credits
    00:53:35.000                : :Disclaimer
    00:53:44.000                : :Studio Logo
    00:53:55.000                : :End Credits

     

  • Peso: 3.14 GiB Aprox ---- 18 GiB in 6 Chapters.

Sinopsis

Tras fracasar en la detención de Suro y tras la vergüenza pública, la vida de Nino Scotellaro llega a su fin. La mafia le quita su dignidad, su amor y su libertad, pero el destino le da una segunda oportunidad. Nino regresa a Sicilia bajo la apariencia de Balduccio Remora, un primo de América del Sur, para vengarse por lo que le han robado.

Ficha técnica

Video trailer de la película

Enlaces de descarga

Rip de Bluray

Descargar The Bad Guy (2022) Primera Temporada AMZN WEB-DL 1080p Latino




Aportes de DPeliculasHDmega la pass es:dpeliculashdmega.org Aportes de CinemaniaHD la pass es:cinemaniahdd.com
Guardado en : Comedia , Crimen , Drama , Series

Películas relacionadas

  • El discurso del Rey (2010) 1080p Latino

    El discurso del Rey (2010) 1080p Latino

    2010
    El discurso del Rey (2010) 1080p Latino

    1h 58m 2010

    Descargar El discurso del Rey (2010) 1080p Latino. El duque de York se convirtió en rey de Gran Bretaña...

    Director: Tom Hooper

    Género: Drama

    Actores: Tony Earnshaw

  • El discurso del Rey (2010) Full HD 1080p Latino

    El discurso del Rey (2010) Full HD 1080p Latino

    2010
    El discurso del Rey (2010) Full HD 1080p Latino

    1h 58m 2010

    Descargar El discurso del Rey (2010) Full HD 1080p Latino. El duque de York se convirtió en rey de Gran...

    Director: Tom Hooper

    Género: Drama

    Actores: Tony Earnshaw

  • El discurso del Rey (2010) REMUX 1080p Latino

    El discurso del Rey (2010) REMUX 1080p Latino

    2010
    El discurso del Rey (2010) REMUX 1080p Latino

    1h 58m 2010

    Descargar El discurso del Rey (2010) REMUX 1080p Latino. El duque de York se convirtió en rey de Gran...

    Director: Tom Hooper

    Género: Drama

    Actores: Tony Earnshaw

  • 8 Mile (2002) REMUX 4K HDR Latino – CMHDD

    8 Mile (2002) REMUX 4K HDR Latino – CMHDD

    2002
    8 Mile (2002) REMUX 4K HDR Latino – CMHDD

    1h 50m 2002

    Detroit, 1995. La promesa de potencia industrial se ha transformado en un hervidero de conflictos económicos...

    Director: Michael J. Moore

    Género: Drama

    Actores: Xzibit

descargar The Bad Guy (2022) Primera Temporada AMZN WEB-DL 1080p Latino 1080p 1080p gratis, The Bad Guy (2022) Primera Temporada AMZN WEB-DL 1080p Latino 1080p mega 1 link, The Bad Guy (2022) Primera Temporada AMZN WEB-DL 1080p Latino 1080p serie completa, descargar The Bad Guy (2022) Primera Temporada AMZN WEB-DL 1080p Latino 1080p gratis en mega.

The Bad Guy (2022) Primera Temporada AMZN WEB-DL 1080p Latino pelicula full hd, The Bad Guy (2022) Primera Temporada AMZN WEB-DL 1080p Latino mega latino, The Bad Guy (2022) Primera Temporada AMZN WEB-DL 1080p Latino 4k latino, The Bad Guy (2022) Primera Temporada AMZN WEB-DL 1080p Latino pelicula completa, The Bad Guy (2022) Primera Temporada AMZN WEB-DL 1080p Latino descargar gratis, descargar The Bad Guy (2022) Primera Temporada AMZN WEB-DL 1080p Latino pelicula latino, The Bad Guy (2022) Primera Temporada AMZN WEB-DL 1080p Latino 1 link mega, The Bad Guy (2022) Primera Temporada AMZN WEB-DL 1080p Latino 1 link google drive, The Bad Guy (2022) Primera Temporada AMZN WEB-DL 1080p Latino hd 1080p latino.
Comentarios 0