×

¿Problemas para descargar con Mozilla, EDGE? Deshabilita la opción "Abrir vinculos en una pestaña nueva" tal como lo muestra ésta imagen.

Star Wars: The Bad Batch (2024) Temporada 3 WEB-DL 1080p Latino

106 vistas

Información de Star Wars: The Bad Batch (2024) Temporada 3 WEB-DL 1080p Latino

Datos de la película

  • Calidad: WEBDL
  • Audio: Se especifica abajo de la Sinopsis
  • Subtitulos: Español Latino SRT- FORZADOS SRT
  • Resolución: 1920x1080p
  • Formato: MKV
  • Codec: H.264
  • Encoder: Melkor
  • Mediainfo: Clic para Mostrar Datos Ver
  • The Bad Batch S03E01 (2024) WebDL 1080p Latino.mkv
    Format                      : Matroska
    Format version              : Version 4
    File size                   : 1.57 GiB
    Duration                    : 30 min 44 s
    Overall bit rate mode       : Variable
    Overall bit rate            : 7 293 kb/s
    Movie name                  : CinemaniaHDD.Net
    Encoded date                : UTC 2024-02-22 07:27:01
    Writing application         : mkvmerge v56.1.0 ('My Friend') 64-bit
    Writing library             : libebml v1.4.2 + libmatroska v1.6.4
    Attachments                 : CINEMANIAHD.png
    Site                        : CinemaniaHDD.Net
    Uploader                    : Melkor

    Video
    ID                          : 1
    Format                      : AVC
    Format/Info                 : Advanced Video Codec
    Format profile              : High@L4
    Format settings             : CABAC / 4 Ref Frames
    Format settings, CABAC      : Yes
    Format settings, Reference  : 4 frames
    Codec ID                    : V_MPEG4/ISO/AVC
    Duration                    : 30 min 44 s
    Bit rate mode               : Variable
    Bit rate                    : 6 778 kb/s
    Maximum bit rate            : 12.7 Mb/s
    Width                       : 1 920 pixels
    Height                      : 1 080 pixels
    Display aspect ratio        : 16:9
    Frame rate mode             : Constant
    Frame rate                  : 24.000 FPS
    Color space                 : YUV
    Chroma subsampling          : 4:2:0
    Bit depth                   : 8 bits
    Scan type                   : Progressive
    Bits/(Pixel*Frame)          : 0.136
    Stream size                 : 1.46 GiB (93%)
    Title                       : WEB HD1080p [CinemaniaHDD]
    Default                     : Yes
    Forced                      : No
    Color range                 : Limited
    Color primaries             : BT.709
    Transfer characteristics    : BT.709
    Matrix coefficients         : BT.709

    Audio #1
    ID                          : 2
    Format                      : E-AC-3
    Format/Info                 : Enhanced AC-3
    Commercial name             : Dolby Digital Plus
    Codec ID                    : A_EAC3
    Duration                    : 30 min 44 s
    Bit rate mode               : Constant
    Bit rate                    : 256 kb/s
    Channel(s)                  : 6 channels
    Channel layout              : L R C LFE Ls Rs
    Sampling rate               : 48.0 kHz
    Frame rate                  : 31.250 FPS (1536 SPF)
    Compression mode            : Lossy
    Stream size                 : 56.3 MiB (4%)
    Title                       : Español Latino [CinemaniaHDD]
    Language                    : Spanish
    Service kind                : Complete Main
    Default                     : Yes
    Forced                      : No

    Audio #2
    ID                          : 3
    Format                      : E-AC-3
    Format/Info                 : Enhanced AC-3
    Commercial name             : Dolby Digital Plus
    Codec ID                    : A_EAC3
    Duration                    : 30 min 44 s
    Bit rate mode               : Constant
    Bit rate                    : 256 kb/s
    Channel(s)                  : 6 channels
    Channel layout              : L R C LFE Ls Rs
    Sampling rate               : 48.0 kHz
    Frame rate                  : 31.250 FPS (1536 SPF)
    Compression mode            : Lossy
    Stream size                 : 56.3 MiB (4%)
    Title                       : Ingles [CinemaniaHDD]
    Language                    : English
    Service kind                : Complete Main
    Default                     : No
    Forced                      : No

    Text #1
    ID                          : 4
    Format                      : UTF-8
    Codec ID                    : S_TEXT/UTF8
    Codec ID/Info               : UTF-8 Plain Text
    Duration                    : 30 min 11 s
    Bit rate                    : 0 b/s
    Count of elements           : 3
    Stream size                 : 33.0 Bytes (0%)
    Title                       : Forzados-SRT [CinemaniaHDD]
    Language                    : Spanish
    Default                     : Yes
    Forced                      : No

    Text #2
    ID                          : 5
    Format                      : UTF-8
    Codec ID                    : S_TEXT/UTF8
    Codec ID/Info               : UTF-8 Plain Text
    Duration                    : 30 min 37 s
    Bit rate                    : 32 b/s
    Count of elements           : 226
    Stream size                 : 7.25 KiB (0%)
    Title                       : Español-SRT [CinemaniaHDD]
    Language                    : Spanish
    Default                     : No
    Forced                      : No

    Text #3
    ID                          : 6
    Format                      : UTF-8
    Codec ID                    : S_TEXT/UTF8
    Codec ID/Info               : UTF-8 Plain Text
    Duration                    : 28 min 55 s
    Bit rate                    : 34 b/s
    Count of elements           : 236
    Stream size                 : 7.32 KiB (0%)
    Title                       : Ingles-SRT [CinemaniaHDD]
    Language                    : English
    Default                     : No
    Forced                      : No

  • Peso: 1.5 GiB -- 13 Chapters Added

Sinopsis

Descargar Star Wars: The Bad Batch (2024) Temporada 3 WEB-DL 1080p Latino. Sigue a los Clones experimentales y de élite conocidos como «El Lote Malo» mientras encuentran su camino en una galaxia que cambia rápidamente después de la Guerra de los Clones.

Español Latino – Ingles [EAC3 5.1 D+] 
13 Capítulos Agregados

Ficha técnica

Video trailer de la película

Enlaces de descarga

Rip de Bluray

Descargar Star Wars: The Bad Batch (2024) Temporada 3 WEB-DL 1080p Latino




Aportes de DPeliculasHDmega la pass es:dpeliculashdmega.org Aportes de CinemaniaHD la pass es:cinemaniahdd.com Aportes recientes:cinemaniahdd.net

Películas relacionadas

descargar Star Wars: The Bad Batch (2024) Temporada 3 WEB-DL 1080p Latino WEBDL 1080p gratis, Star Wars: The Bad Batch (2024) Temporada 3 WEB-DL 1080p Latino WEBDL mega 1 link, Star Wars: The Bad Batch (2024) Temporada 3 WEB-DL 1080p Latino WEBDL serie completa, descargar Star Wars: The Bad Batch (2024) Temporada 3 WEB-DL 1080p Latino WEBDL gratis en mega.

Star Wars: The Bad Batch (2024) Temporada 3 WEB-DL 1080p Latino pelicula full hd, Star Wars: The Bad Batch (2024) Temporada 3 WEB-DL 1080p Latino mega latino, Star Wars: The Bad Batch (2024) Temporada 3 WEB-DL 1080p Latino 4k latino, Star Wars: The Bad Batch (2024) Temporada 3 WEB-DL 1080p Latino pelicula completa, Star Wars: The Bad Batch (2024) Temporada 3 WEB-DL 1080p Latino descargar gratis, descargar Star Wars: The Bad Batch (2024) Temporada 3 WEB-DL 1080p Latino pelicula latino, Star Wars: The Bad Batch (2024) Temporada 3 WEB-DL 1080p Latino 1 link mega, Star Wars: The Bad Batch (2024) Temporada 3 WEB-DL 1080p Latino 1 link google drive, Star Wars: The Bad Batch (2024) Temporada 3 WEB-DL 1080p Latino hd 1080p latino.
Comentarios 0