×

¿Problemas para descargar con Mozilla, EDGE? Deshabilita la opción "Abrir vinculos en una pestaña nueva" tal como lo muestra ésta imagen.

The Assent (2020) WEB-DL AMZN 1080p Latino

348 vistas

Información de The Assent (2020) WEB-DL AMZN 1080p Latino

Datos de la película

  • Calidad: WEBDL
  • Audio: Español Latino AC3 2.0 Capturado- Ingles AC3 5.1 AMAZON
  • Subtitulos: Español Latino SRT
  • Resolución: 1920x816
  • Formato: MKV
  • Codec: H.264
  • Encoder: CinemaniaHD
  • Mediainfo: Clic para Mostrar Datos Ver
  • The Assent (2020) AMZN 1080p Latino.mkv
    Format                      : Matroska
    Format version              : Version 4
    File size                   : 4.23 GiB
    Duration                    : 1 h 27 min
    Overall bit rate            : 6 893 kb/s
    Encoded date                : UTC 2020-06-07 17:04:58
    Writing application         : mkvmerge v46.0.0 ('No Deeper Escape') 64-bit
    Writing library             : libebml v1.3.10 + libmatroska v1.5.2

    Video
    ID                          : 1
    Format                      : AVC
    Format/Info                 : Advanced Video Codec
    Format profile              : High@L4
    Format settings             : CABAC / 4 Ref Frames
    Format settings, CABAC      : Yes
    Format settings, Reference  : 4 frames
    Codec ID                    : V_MPEG4/ISO/AVC
    Duration                    : 1 h 27 min
    Bit rate mode               : Constant
    Bit rate                    : 5 995 kb/s
    Nominal bit rate            : 10 000 kb/s
    Width                       : 1 920 pixels
    Height                      : 816 pixels
    Display aspect ratio        : 2.35:1
    Frame rate mode             : Constant
    Frame rate                  : 23.976 (24000/1001) FPS
    Color space                 : YUV
    Chroma subsampling          : 4:2:0
    Bit depth                   : 8 bits
    Scan type                   : Progressive
    Bits/(Pixel*Frame)          : 0.160
    Stream size                 : 3.68 GiB (87%)
    Default                     : Yes
    Forced                      : No
    Color range                 : Limited
    Color primaries             : BT.709
    Transfer characteristics    : BT.709
    Matrix coefficients         : BT.709

    Audio #1
    ID                          : 2
    Format                      : AC-3
    Format/Info                 : Audio Coding 3
    Commercial name             : Dolby Digital
    Codec ID                    : A_AC3
    Duration                    : 1 h 27 min
    Bit rate mode               : Constant
    Bit rate                    : 256 kb/s
    Channel(s)                  : 2 channels
    Channel layout              : L R
    Sampling rate               : 48.0 kHz
    Frame rate                  : 31.250 FPS (1536 SPF)
    Compression mode            : Lossy
    Stream size                 : 161 MiB (4%)
    Language                    : Spanish
    Service kind                : Complete Main
    Default                     : Yes
    Forced                      : No

    Audio #2
    ID                          : 3
    Format                      : E-AC-3
    Format/Info                 : Enhanced AC-3
    Commercial name             : Dolby Digital Plus
    Codec ID                    : A_EAC3
    Duration                    : 1 h 27 min
    Bit rate mode               : Constant
    Bit rate                    : 640 kb/s
    Channel(s)                  : 6 channels
    Channel layout              : L R C LFE Ls Rs
    Sampling rate               : 48.0 kHz
    Frame rate                  : 31.250 FPS (1536 SPF)
    Compression mode            : Lossy
    Stream size                 : 402 MiB (9%)
    Language                    : English
    Service kind                : Complete Main
    Default                     : No
    Forced                      : No

    Text #1
    ID                          : 4
    Format                      : UTF-8
    Codec ID                    : S_TEXT/UTF8
    Codec ID/Info               : UTF-8 Plain Text
    Duration                    : 1 h 20 min
    Bit rate                    : 0 b/s
    Count of elements           : 11
    Stream size                 : 254 Bytes (0%)
    Language                    : Spanish
    Default                     : Yes
    Forced                      : No

    Text #2
    ID                          : 5
    Format                      : UTF-8
    Codec ID                    : S_TEXT/UTF8
    Codec ID/Info               : UTF-8 Plain Text
    Duration                    : 1 h 21 min
    Bit rate                    : 51 b/s
    Count of elements           : 924
    Stream size                 : 30.8 KiB (0%)
    Language                    : Spanish
    Default                     : No
    Forced                      : No

  • Peso: 4.23 GiB

Sinopsis

Después de una serie de perturbadores eventos sobrenaturales en su hogar, Joel, un joven padre soltero, llega a sospechar que su pequeño hijo puede estar poseído. Pronto Joel recibe una visita del padre Lambert, un polémico exorcista en la ciudad cuyo último paciente falleció durante su tratamiento. A medida que comienzan a desarrollarse sucesos escalofriantes, el sacerdote le informa a un Joel resistente que, a menos que pueda realizar un exorcismo con éxito, el diablo pronto tomará el control total de su hijo.

Ficha técnica

Video trailer de la película

Enlaces de descarga

Rip de Bluray

Descargar The Assent (2020) WEB-DL AMZN 1080p Latino




Aportes de DPeliculasHDmega la pass es:dpeliculashdmega.org Aportes de CinemaniaHD la pass es:cinemaniahdd.com
Guardado en : Suspenso , Terror

Películas relacionadas

  • Paradise Highway (2022) HD 1080p Latino

    Paradise Highway (2022) HD 1080p Latino

    2022
    Paradise Highway (2022) HD 1080p Latino

    1h 55m 2022

    Descargar Paradise Highway (2022) HD 1080p Latino. Un camionero se ha visto obligado a pasar de contrabando...

    Director: Anna Gutto

    Género: Crimen

    Actores: Xavier Scott Evans

  • Paradise Highway (2022) PLACEBO Full HD 1080p Latino

    Paradise Highway (2022) PLACEBO Full HD 1080p Latino

    2022
    Paradise Highway (2022) PLACEBO Full HD 1080p Latino

    1h 55m 2022

    Descargar Paradise Highway (2022) PLACEBO Full HD 1080p Latino. Un camionero se ha visto obligado a pasar...

    Director: Anna Gutto

    Género: Crimen

    Actores: Xavier Scott Evans

  • Paradise Highway (2022) REMUX 1080p Latino

    Paradise Highway (2022) REMUX 1080p Latino

    2022
    Paradise Highway (2022) REMUX 1080p Latino

    1h 55m 2022

    Descargar Paradise Highway (2022) REMUX 1080p Latino. Un camionero se ha visto obligado a pasar de contrabando...

    Director: Anna Gutto

    Género: Crimen

    Actores: Xavier Scott Evans

  • M3GAN (2023) AMZN WEB-DL 4K UHD HDR Latino

    M3GAN (2023) AMZN WEB-DL 4K UHD HDR Latino

    2022
    M3GAN (2023) AMZN WEB-DL 4K UHD HDR Latino

    1h 42m 2022

    Descargar M3GAN (2023) AMZN WEB-DL 4K UHD HDR Latino. Cuando Gemma se convierte en la cuidadora de su...

    Director: Stephen W. Moore

    Género: 4K HDR

    Actores: Violet McGraw

descargar The Assent (2020) WEB-DL AMZN 1080p Latino WEBDL 1080p gratis, The Assent (2020) WEB-DL AMZN 1080p Latino WEBDL mega 1 link, The Assent (2020) WEB-DL AMZN 1080p Latino WEBDL pelicula completa, descargar The Assent (2020) WEB-DL AMZN 1080p Latino WEBDL gratis en mega.

The Assent (2020) WEB-DL AMZN 1080p Latino pelicula full hd, The Assent (2020) WEB-DL AMZN 1080p Latino mega latino, The Assent (2020) WEB-DL AMZN 1080p Latino 4k latino, The Assent (2020) WEB-DL AMZN 1080p Latino pelicula completa, The Assent (2020) WEB-DL AMZN 1080p Latino descargar gratis, descargar The Assent (2020) WEB-DL AMZN 1080p Latino pelicula latino, The Assent (2020) WEB-DL AMZN 1080p Latino 1 link mega, The Assent (2020) WEB-DL AMZN 1080p Latino 1 link google drive, The Assent (2020) WEB-DL AMZN 1080p Latino hd 1080p latino.
Comentarios 2
  • Galo - 07 junio, 2020

    Buenas noches quisera saber como descargar esta ya que estoy intentando ya varias veces q salga el enlace y no carga para aplastar en la propaganda y dice que cierre y la vuelva abrir y ya lo echo como 10 veces y no sale nada me podrian ayudar gracias buenas noches

    • CinemaniaHDD - 08 junio, 2020

      Hola, solo debes de darle clic a los botones que tienen una cuenta regresiba al final te saldra una pagina con un banner publicitario le das clic y regresas a la primera pestañas llamada » mundo-gatos» y esperas a que la cuenta de 30 llege a 0 le clickeas y eso es todo