×

¿Problemas para descargar con Mozilla, EDGE? Deshabilita la opción "Abrir vinculos en una pestaña nueva" tal como lo muestra ésta imagen.

El Arte De La Guerra (2000) 1080p Latino-CMHDD

47 vistas

Información de El Arte De La Guerra (2000) 1080p Latino-CMHDD

Datos de la película

  • Calidad: 1080p
  • Audio: Español Latino AC3 2.0 BLURAY - Ingles AC3 5.1 BLURAY
  • Subtitulos: Español Latino SRT - Ingles SRT
  • Resolución: 1920x800p
  • Formato: MKV
  • Codec: H.264
  • Encoder: CinefiloCool
  • Mediainfo: Clic para Mostrar Datos Ver
  • The.Art.of.War.2000.Bluray.1080p.x264.Latino-CC@CMHDD.mkv
    Format                      : Matroska
    Format version              : Version 4
    File size                   : 3.81 GiB
    Duration                    : 1 h 57 min
    Overall bit rate mode       : Variable
    Overall bit rate            : 4 648 kb/s
    Movie name                  : The Art of War (2000) CinemaniaHDD.Net
    Encoded date                : UTC 2024-03-10 22:56:46
    Writing application         : mkvmerge v56.1.0 ('My Friend') 64-bit
    Writing library             : libebml v1.4.2 + libmatroska v1.6.4
    Cover                       : Yes
    Attachments                 : cover.jpg / CINEMANIAHD.png

    Video
    ID                          : 1
    Format                      : AVC
    Format/Info                 : Advanced Video Codec
    Format profile              : High@L4.1
    Format settings             : CABAC / 5 Ref Frames
    Format settings, CABAC      : Yes
    Format settings, Reference  : 5 frames
    Codec ID                    : V_MPEG4/ISO/AVC
    Duration                    : 1 h 57 min
    Bit rate mode               : Variable
    Bit rate                    : 4 006 kb/s
    Width                       : 1 920 pixels
    Height                      : 800 pixels
    Display aspect ratio        : 2.40:1
    Frame rate mode             : Constant
    Frame rate                  : 23.976 (24000/1001) FPS
    Color space                 : YUV
    Chroma subsampling          : 4:2:0
    Bit depth                   : 8 bits
    Scan type                   : Progressive
    Bits/(Pixel*Frame)          : 0.109
    Stream size                 : 3.28 GiB (86%)
    Title                       : HD1080p [CinemaniaHDD]
    Writing library             : x264 core 163 r3059 b684ebe0
    Encoding settings           : cabac=1 / ref=5 / deblock=1:-1:-1 / analyse=0x3:0x133 / me=umh / subme=9 / psy=1 / psy_rd=1.00:0.15 / mixed_ref=1 / me_range=16 / chroma_me=1 / trellis=2 / 8x8dct=1 / cqm=0 / deadzone=21,11 / fast_pskip=1 / chroma_qp_offset=-3 / threads=24 / lookahead_threads=2 / sliced_threads=0 / nr=0 / decimate=1 / interlaced=0 / bluray_compat=0 / constrained_intra=0 / bframes=3 / b_pyramid=2 / b_adapt=2 / b_bias=0 / direct=3 / weightb=1 / open_gop=0 / weightp=2 / keyint=240 / keyint_min=24 / scenecut=40 / intra_refresh=0 / rc_lookahead=60 / rc=crf / mbtree=1 / crf=22.5 / qcomp=0.60 / qpmin=0 / qpmax=69 / qpstep=4 / vbv_maxrate=62500 / vbv_bufsize=78125 / crf_max=0.0 / nal_hrd=vbr / filler=0 / ip_ratio=1.40 / aq=1:1.00
    Default                     : Yes
    Forced                      : Yes
    Color range                 : Limited
    Color primaries             : BT.709
    Transfer characteristics    : BT.709
    Matrix coefficients         : BT.709

    Audio #1
    ID                          : 2
    ID in the original source m : 4353 (0x1101)
    Format                      : AC-3
    Format/Info                 : Audio Coding 3
    Commercial name             : Dolby Digital
    Format settings             : Dolby Surround
    Codec ID                    : A_AC3
    Duration                    : 1 h 57 min
    Bit rate mode               : Constant
    Bit rate                    : 192 kb/s
    Channel(s)                  : 2 channels
    Channel layout              : L R
    Sampling rate               : 48.0 kHz
    Frame rate                  : 31.250 FPS (1536 SPF)
    Compression mode            : Lossy
    Delay relative to video     : -5 ms
    Stream size                 : 161 MiB (4%)
    Title                       : Español Latino [CinemaniaHDD]
    Language                    : Spanish
    Service kind                : Complete Main
    Default                     : Yes
    Forced                      : Yes
    Original source medium      : Blu-ray

    Audio #2
    ID                          : 3
    Format                      : AC-3
    Format/Info                 : Audio Coding 3
    Commercial name             : Dolby Digital
    Codec ID                    : A_AC3
    Duration                    : 1 h 57 min
    Bit rate mode               : Constant
    Bit rate                    : 448 kb/s
    Channel(s)                  : 6 channels
    Channel layout              : L R C LFE Ls Rs
    Sampling rate               : 48.0 kHz
    Frame rate                  : 31.250 FPS (1536 SPF)
    Compression mode            : Lossy
    Delay relative to video     : -5 ms
    Stream size                 : 376 MiB (10%)
    Title                       : Ingles [CinemaniaHDD]
    Language                    : English
    Service kind                : Complete Main
    Default                     : No
    Forced                      : No

    Text #1
    ID                          : 4
    Format                      : UTF-8
    Codec ID                    : S_TEXT/UTF8
    Codec ID/Info               : UTF-8 Plain Text
    Duration                    : 1 h 37 min
    Bit rate                    : 0 b/s
    Count of elements           : 27
    Stream size                 : 581 Bytes (0%)
    Title                       : Forzados-SRT [CinemaniaHDD]
    Language                    : Spanish
    Default                     : Yes
    Forced                      : Yes

    Text #2
    ID                          : 5
    Format                      : UTF-8
    Codec ID                    : S_TEXT/UTF8
    Codec ID/Info               : UTF-8 Plain Text
    Duration                    : 1 h 52 min
    Bit rate                    : 32 b/s
    Count of elements           : 993
    Stream size                 : 26.6 KiB (0%)
    Title                       : Español-SRT [CinemaniaHDD]
    Language                    : Spanish
    Default                     : No
    Forced                      : No

    Text #3
    ID                          : 6
    Format                      : UTF-8
    Codec ID                    : S_TEXT/UTF8
    Codec ID/Info               : UTF-8 Plain Text
    Duration                    : 1 h 51 min
    Bit rate                    : 45 b/s
    Count of elements           : 1008
    Stream size                 : 37.3 KiB (0%)
    Title                       : Ingles-SRT [CinemaniaHDD]
    Language                    : English
    Default                     : No
    Forced                      : No

    Menu
    00:00:00.000                : Chapter 01
    00:04:15.046                : Chapter 02
    00:06:38.439                : Chapter 03
    00:08:57.995                : Chapter 04
    00:12:25.161                : Chapter 05
    00:16:56.682                : Chapter 06
    00:22:01.361                : Chapter 07
    00:26:05.063                : Chapter 08
    00:29:26.181                : Chapter 09
    00:32:56.933                : Chapter 10
    00:35:57.655                : Chapter 11
    00:37:23.491                : Chapter 12
    00:41:01.041                : Chapter 13
    00:43:10.337                : Chapter 14
    00:45:34.898                : Chapter 15
    00:49:58.495                : Chapter 16
    00:54:42.279                : Chapter 17
    00:58:28.505                : Chapter 18
    01:02:52.101                : Chapter 19
    01:06:50.381                : Chapter 20
    01:09:53.939                : Chapter 21
    01:14:03.939                : Chapter 22
    01:17:52.584                : Chapter 23
    01:20:18.814                : Chapter 24
    01:24:17.510                : Chapter 25
    01:29:11.387                : Chapter 26
    01:31:22.268                : Chapter 27
    01:33:59.592                : Chapter 28
    01:37:37.726                : Chapter 29
    01:40:06.917                : Chapter 30
    01:43:11.894                : Chapter 31
    01:46:01.188                : Chapter 32
    01:48:58.448                : Chapter 33
    01:50:42.052                : Chapter 34
    01:53:40.563                : Chapter 35

  • Peso: 3.81 GiB

Sinopsis

Descargar El Arte De La Guerra (2000) 1080p Latino-CMHDD. Antes de la celebración de una importante conferencia, Neil Shaw, agente del FBI, es acusado del asesinato del embajador chino en las Naciones Unidas. Pero, si Shaw quiere demostrar su inocencia, tendrá que desentrañar la conspiración política que hay detrás de ese crimen. Y para lograrlo tendrá que huir de la justicia y enfrentarse a los verdaderos culpables.

Ficha técnica

Video trailer de la película

Enlaces de descarga

Rip de Bluray

Descargar El Arte De La Guerra (2000) 1080p Latino-CMHDD




Aportes de DPeliculasHDmega la pass es:dpeliculashdmega.org Aportes de CinemaniaHD la pass es:cinemaniahdd.com Aportes recientes:cinemaniahdd.net
Guardado en : Acción , Aventura , Crimen , HD 1080p

Películas relacionadas

descargar El Arte De La Guerra (2000) 1080p Latino-CMHDD 1080p 1080p gratis, El Arte De La Guerra (2000) 1080p Latino-CMHDD 1080p mega 1 link, El Arte De La Guerra (2000) 1080p Latino-CMHDD 1080p pelicula completa, descargar El Arte De La Guerra (2000) 1080p Latino-CMHDD 1080p gratis en mega.

El Arte De La Guerra (2000) 1080p Latino-CMHDD pelicula full hd, El Arte De La Guerra (2000) 1080p Latino-CMHDD mega latino, El Arte De La Guerra (2000) 1080p Latino-CMHDD 4k latino, El Arte De La Guerra (2000) 1080p Latino-CMHDD pelicula completa, El Arte De La Guerra (2000) 1080p Latino-CMHDD descargar gratis, descargar El Arte De La Guerra (2000) 1080p Latino-CMHDD pelicula latino, El Arte De La Guerra (2000) 1080p Latino-CMHDD 1 link mega, El Arte De La Guerra (2000) 1080p Latino-CMHDD 1 link google drive, El Arte De La Guerra (2000) 1080p Latino-CMHDD hd 1080p latino.
Comentarios 0