×

¿Problemas para descargar con Mozilla, EDGE? Deshabilita la opción "Abrir vinculos en una pestaña nueva" tal como lo muestra ésta imagen.

The Art of Racing in the Rain (2019) WEB-DL 4K HDR Latino – CMHDD

81 vistas

Información de The Art of Racing in the Rain (2019) WEB-DL 4K HDR Latino – CMHDD

Datos de la película

  • Calidad: WEBDL
  • Audio: Español Latino AC3 5.1 BLURAY - Ingles DTS 5.1 BLURAY
  • Subtitulos: Español Latino SRT- FORZADOS SRT
  • Resolución: 3840x2160p
  • Formato: MKV
  • Codec: H.264
  • Encoder: Dracarys
  • Mediainfo: Clic para Mostrar Datos Ver
  • Format                      : Matroska
    Format version              : Version 4
    File size                   : 14.0 GiB
    Duration                    : 1 h 48 min
    Overall bit rate            : 18.4 Mb/s
    Movie name                  : The Art of Racing in the Rain (2019) WEB-DL 4K HDR Latino - CMHDD
    Encoded date                : UTC 2023-12-17 22:14:41
    Writing application         : mkvmerge v47.0.0 ('Black Flag') 64-bit
    Writing library             : libebml v1.3.10 + libmatroska v1.5.2

    Video
    ID                          : 1
    Format                      : HEVC
    Format/Info                 : High Efficiency Video Coding
    Format profile              : Main 10@L5@High
    HDR format                  : SMPTE ST 2086, HDR10 compatible
    Codec ID                    : V_MPEGH/ISO/HEVC
    Duration                    : 1 h 48 min
    Bit rate                    : 16.2 Mb/s
    Width                       : 3 840 pixels
    Height                      : 2 160 pixels
    Display aspect ratio        : 16:9
    Frame rate mode             : Constant
    Frame rate                  : 23.976 (24000/1001) FPS
    Color space                 : YUV
    Chroma subsampling          : 4:2:0
    Bit depth                   : 10 bits
    Bits/(Pixel*Frame)          : 0.081
    Stream size                 : 12.3 GiB (88%)
    Default                     : Yes
    Forced                      : No
    Color range                 : Limited
    Color primaries             : BT.2020
    Transfer characteristics    : PQ
    Matrix coefficients         : BT.2020 non-constant
    Mastering display color pri : Display P3
    Mastering display luminance : min: 0.0050 cd/m2, max: 1000 cd/m2

    Audio #1
    ID                          : 2
    Format                      : AC-3
    Format/Info                 : Audio Coding 3
    Commercial name             : Dolby Digital
    Codec ID                    : A_AC3
    Duration                    : 1 h 48 min
    Bit rate mode               : Constant
    Bit rate                    : 448 kb/s
    Channel(s)                  : 6 channels
    Channel layout              : L R C LFE Ls Rs
    Sampling rate               : 48.0 kHz
    Frame rate                  : 31.250 FPS (1536 SPF)
    Compression mode            : Lossy
    Delay relative to video     : 12 ms
    Stream size                 : 349 MiB (2%)
    Language                    : Spanish
    Service kind                : Complete Main
    Default                     : Yes
    Forced                      : No

    Audio #2
    ID                          : 3
    Format                      : E-AC-3
    Format/Info                 : Enhanced AC-3
    Commercial name             : Dolby Digital Plus
    Codec ID                    : A_EAC3
    Duration                    : 1 h 48 min
    Bit rate mode               : Constant
    Bit rate                    : 256 kb/s
    Channel(s)                  : 6 channels
    Channel layout              : L R C LFE Ls Rs
    Sampling rate               : 48.0 kHz
    Frame rate                  : 31.250 FPS (1536 SPF)
    Compression mode            : Lossy
    Stream size                 : 199 MiB (1%)
    Language                    : English
    Service kind                : Complete Main
    Default                     : No
    Forced                      : No

    Audio #3
    ID                          : 4
    Format                      : DTS
    Format/Info                 : Digital Theater Systems
    Codec ID                    : A_DTS
    Duration                    : 1 h 48 min
    Bit rate mode               : Constant
    Bit rate                    : 1 509 kb/s
    Channel(s)                  : 6 channels
    Channel layout              : C L R Ls Rs LFE
    Sampling rate               : 48.0 kHz
    Frame rate                  : 93.750 FPS (512 SPF)
    Bit depth                   : 24 bits
    Compression mode            : Lossy
    Delay relative to video     : 2 ms
    Stream size                 : 1.15 GiB (8%)
    Language                    : English
    Default                     : No
    Forced                      : No

    Text
    ID                          : 5
    Format                      : UTF-8
    Codec ID                    : S_TEXT/UTF8
    Codec ID/Info               : UTF-8 Plain Text
    Duration                    : 1 h 40 min
    Bit rate                    : 65 b/s
    Frame rate                  : 0.226 FPS
    Count of elements           : 1370
    Stream size                 : 48.8 KiB (0%)
    Language                    : Spanish
    Default                     : No
    Forced                      : No

    Menu
    00:00:00.000                : en:00:00:00.000
    00:04:51.583                : en:00:04:51.583
    00:10:34.884                : en:00:10:34.884
    00:13:59.589                : en:00:13:59.589
    00:17:26.712                : en:00:17:26.712
    00:20:54.920                : en:00:20:54.920
    00:26:08.734                : en:00:26:08.734
    00:31:05.530                : en:00:31:05.530
    00:36:22.680                : en:00:36:22.680
    00:39:37.417                : en:00:39:37.417
    00:43:47.291                : en:00:43:47.291
    00:48:57.143                : en:00:48:57.143
    00:54:02.739                : en:00:54:02.739
    00:59:17.429                : en:00:59:17.429
    01:03:59.127                : en:01:03:59.127
    01:07:27.502                : en:01:07:27.502
    01:10:49.078                : en:01:10:49.078
    01:14:47.858                : en:01:14:47.858
    01:18:46.513                : en:01:18:46.513
    01:25:06.852                : en:01:25:06.852
    01:28:34.601                : en:01:28:34.601
    01:32:43.767                : en:01:32:43.767
    01:36:29.951                : en:01:36:29.951
    01:41:27.540                : en:01:41:27.540

     

  • Peso: 14.0 GiB

Sinopsis

El argumento está basado en la novela publicada por Garth Stein, la cual responde al mismo nombre que el filme. La historia combina diferentes sentimientos y situaciones comprometidas para la sociedad como son el dolor, la liberación, el cariño o el riesgo. Enzo, un perro que ha experimentado muchas aventuras interesantes a lo largo de su vida, es el personaje que pone voz a la película. Pese a no ser una persona de carne y hueso, este entrañable animal será capaz de dar diferentes lecciones a los seres humanos sobre cuál tendría que ser la manera adecuada de actuar sea cual sea la situación en la que se encuentren.

Ficha técnica

Video trailer de la película

Enlaces de descarga

Rip de Bluray

Descargar The Art of Racing in the Rain (2019) WEB-DL 4K HDR Latino – CMHDD




Aportes de DPeliculasHDmega la pass es:dpeliculashdmega.org Aportes de CinemaniaHD la pass es:cinemaniahdd.com Aportes recientes:cinemaniahdd.net
Guardado en : Drama , Romance

Películas relacionadas

descargar The Art of Racing in the Rain (2019) WEB-DL 4K HDR Latino – CMHDD WEBDL 1080p gratis, The Art of Racing in the Rain (2019) WEB-DL 4K HDR Latino – CMHDD WEBDL mega 1 link, The Art of Racing in the Rain (2019) WEB-DL 4K HDR Latino – CMHDD WEBDL pelicula completa, descargar The Art of Racing in the Rain (2019) WEB-DL 4K HDR Latino – CMHDD WEBDL gratis en mega.

The Art of Racing in the Rain (2019) WEB-DL 4K HDR Latino – CMHDD pelicula full hd, The Art of Racing in the Rain (2019) WEB-DL 4K HDR Latino – CMHDD mega latino, The Art of Racing in the Rain (2019) WEB-DL 4K HDR Latino – CMHDD 4k latino, The Art of Racing in the Rain (2019) WEB-DL 4K HDR Latino – CMHDD pelicula completa, The Art of Racing in the Rain (2019) WEB-DL 4K HDR Latino – CMHDD descargar gratis, descargar The Art of Racing in the Rain (2019) WEB-DL 4K HDR Latino – CMHDD pelicula latino, The Art of Racing in the Rain (2019) WEB-DL 4K HDR Latino – CMHDD 1 link mega, The Art of Racing in the Rain (2019) WEB-DL 4K HDR Latino – CMHDD 1 link google drive, The Art of Racing in the Rain (2019) WEB-DL 4K HDR Latino – CMHDD hd 1080p latino.
Comentarios 0