×

¿Problemas para descargar con Mozilla, EDGE? Deshabilita la opción "Abrir vinculos en una pestaña nueva" tal como lo muestra ésta imagen.

La Aparicion (2012) HMAX WebDL 1080p Latino

131 vistas

Información de La Aparicion (2012) HMAX WebDL 1080p Latino

Datos de la película

  • Calidad: WEBDL
  • Audio: Español Latino AC3 5.1 WEB-DL - Ingles AC3 5.1 WEB-DL
  • Subtitulos: Español Latino SRT - Ingles SRT
  • Resolución: 1920x816p
  • Formato: MKV
  • Codec: H.264
  • Encoder: CinefiloCool
  • Mediainfo: Clic para Mostrar Datos Ver
  • La Aparicion (2012) HMAX Web-DL 1080p Latino-CMHDD.mkv
    Format                      : Matroska
    Format version              : Version 4
    File size                   : 5.19 GiB
    Duration                    : 1 h 22 min
    Overall bit rate mode       : Variable
    Overall bit rate            : 9 014 kb/s
    Movie name                  : The Apparition (2012) CinemaniaHDD.Net
    Encoded date                : UTC 2021-11-15 06:06:20
    Writing application         : mkvmerge v56.1.0 ('My Friend') 64-bit
    Writing library             : libebml v1.4.2 + libmatroska v1.6.4
    Attachments                 : CINEMANIAHD.png

    Video
    ID                          : 1
    Format                      : AVC
    Format/Info                 : Advanced Video Codec
    Format profile              : High@L4
    Format settings             : CABAC / 4 Ref Frames
    Format settings, CABAC      : Yes
    Format settings, Reference  : 4 frames
    Codec ID                    : V_MPEG4/ISO/AVC
    Duration                    : 1 h 22 min
    Bit rate mode               : Variable
    Bit rate                    : 8 250 kb/s
    Maximum bit rate            : 12.4 Mb/s
    Width                       : 1 920 pixels
    Height                      : 816 pixels
    Display aspect ratio        : 2.35:1
    Frame rate mode             : Constant
    Frame rate                  : 23.976 (24000/1001) FPS
    Color space                 : YUV
    Chroma subsampling          : 4:2:0
    Bit depth                   : 8 bits
    Scan type                   : Progressive
    Bits/(Pixel*Frame)          : 0.220
    Stream size                 : 4.74 GiB (91%)
    Title                       : Web HD1080p [CinemaniaHDD]
    Writing library             : x264 core 157 r2965 861cec4
    Encoding settings           : cabac=1 / ref=4 / deblock=1:0:0 / analyse=0x3:0x113 / me=hex / subme=7 / psy=1 / psy_rd=1.00:0.00 / mixed_ref=1 / me_range=16 / chroma_me=1 / trellis=1 / 8x8dct=1 / cqm=0 / deadzone=21,11 / fast_pskip=1 / chroma_qp_offset=-2 / threads=25 / lookahead_threads=4 / sliced_threads=0 / nr=0 / decimate=1 / interlaced=0 / bluray_compat=0 / constrained_intra=0 / bframes=3 / b_pyramid=2 / b_adapt=1 / b_bias=0 / direct=1 / weightb=1 / open_gop=0 / weightp=2 / keyint=96 / keyint_min=96 / scenecut=40 / intra_refresh=0 / rc_lookahead=40 / rc=2pass / mbtree=1 / bitrate=8250 / ratetol=1.0 / qcomp=0.60 / qpmin=0 / qpmax=69 / qpstep=4 / cplxblur=20.0 / qblur=0.5 / vbv_maxrate=12375 / vbv_bufsize=6187 / nal_hrd=vbr / filler=0 / ip_ratio=1.40 / aq=1:1.00
    Language                    : English
    Default                     : Yes
    Forced                      : No
    Color range                 : Limited
    Color primaries             : BT.709
    Transfer characteristics    : BT.709
    Matrix coefficients         : BT.709

    Audio #1
    ID                          : 2
    Format                      : AC-3
    Format/Info                 : Audio Coding 3
    Commercial name             : Dolby Digital
    Codec ID                    : A_AC3
    Duration                    : 1 h 22 min
    Bit rate mode               : Constant
    Bit rate                    : 384 kb/s
    Channel(s)                  : 6 channels
    Channel layout              : L R C LFE Ls Rs
    Sampling rate               : 48.0 kHz
    Frame rate                  : 31.250 FPS (1536 SPF)
    Compression mode            : Lossy
    Stream size                 : 226 MiB (4%)
    Title                       : Español Latino [CinemaniaHDD]
    Language                    : Spanish
    Service kind                : Complete Main
    Default                     : Yes
    Forced                      : No

    Audio #2
    ID                          : 3
    Format                      : AC-3
    Format/Info                 : Audio Coding 3
    Commercial name             : Dolby Digital
    Codec ID                    : A_AC3
    Duration                    : 1 h 22 min
    Bit rate mode               : Constant
    Bit rate                    : 384 kb/s
    Channel(s)                  : 6 channels
    Channel layout              : L R C LFE Ls Rs
    Sampling rate               : 48.0 kHz
    Frame rate                  : 31.250 FPS (1536 SPF)
    Compression mode            : Lossy
    Stream size                 : 226 MiB (4%)
    Title                       : Ingles [CinemaniaHDD]
    Language                    : English
    Service kind                : Complete Main
    Default                     : No
    Forced                      : No

    Text #1
    ID                          : 4
    Format                      : UTF-8
    Codec ID                    : S_TEXT/UTF8
    Codec ID/Info               : UTF-8 Plain Text
    Duration                    : 1 h 11 min
    Bit rate                    : 1 b/s
    Count of elements           : 21
    Stream size                 : 746 Bytes (0%)
    Title                       : Forzados-SRT [CinemaniaHDD]
    Language                    : Spanish
    Default                     : Yes
    Forced                      : No

    Text #2
    ID                          : 5
    Format                      : UTF-8
    Codec ID                    : S_TEXT/UTF8
    Codec ID/Info               : UTF-8 Plain Text
    Duration                    : 1 h 20 min
    Bit rate                    : 27 b/s
    Count of elements           : 468
    Stream size                 : 16.0 KiB (0%)
    Title                       : Español-SRT [CinemaniaHDD]
    Language                    : Spanish
    Default                     : No
    Forced                      : No

    Text #3
    ID                          : 6
    Format                      : UTF-8
    Codec ID                    : S_TEXT/UTF8
    Codec ID/Info               : UTF-8 Plain Text
    Duration                    : 1 h 11 min
    Bit rate                    : 30 b/s
    Count of elements           : 509
    Stream size                 : 15.8 KiB (0%)
    Title                       : Ingles-SRT [CinemaniaHDD]
    Language                    : English
    Default                     : No
    Forced                      : No

  • Peso: 5.19 GiB

Sinopsis

Descargar La Aparicion (2012) HMAX WebDL 1080p Latino. Cuando en su casa comienzan a ocurrir cosas extrañas, la joven pareja formada por Kelly y Ben descubre que todo se debe a una presencia que fue conjurada accidentalmente durante un experimento universitario parapsicológico. La horrible aparición se alimenta de sus miedos. Su última esperanza es un experto en lo sobrenatural, Patrick, pero aun con su ayuda, puede ya ser muy tarde para salvarse a sí mismos de esta fuerza aterradora.

Ficha técnica

Video trailer de la película

Enlaces de descarga

Rip de Bluray

Descargar La Aparicion (2012) HMAX WebDL 1080p Latino




Aportes de DPeliculasHDmega la pass es:dpeliculashdmega.org Aportes de CinemaniaHD la pass es:cinemaniahdd.com
Guardado en : Suspenso , Terror

Películas relacionadas

descargar La Aparicion (2012) HMAX WebDL 1080p Latino WEBDL 1080p gratis, La Aparicion (2012) HMAX WebDL 1080p Latino WEBDL mega 1 link, La Aparicion (2012) HMAX WebDL 1080p Latino WEBDL pelicula completa, descargar La Aparicion (2012) HMAX WebDL 1080p Latino WEBDL gratis en mega.

La Aparicion (2012) HMAX WebDL 1080p Latino pelicula full hd, La Aparicion (2012) HMAX WebDL 1080p Latino mega latino, La Aparicion (2012) HMAX WebDL 1080p Latino 4k latino, La Aparicion (2012) HMAX WebDL 1080p Latino pelicula completa, La Aparicion (2012) HMAX WebDL 1080p Latino descargar gratis, descargar La Aparicion (2012) HMAX WebDL 1080p Latino pelicula latino, La Aparicion (2012) HMAX WebDL 1080p Latino 1 link mega, La Aparicion (2012) HMAX WebDL 1080p Latino 1 link google drive, La Aparicion (2012) HMAX WebDL 1080p Latino hd 1080p latino.
Comentarios 0