×

¿Problemas para descargar con Mozilla, EDGE? Deshabilita la opción "Abrir vinculos en una pestaña nueva" tal como lo muestra ésta imagen.

The Animatrix (2003) REMUX 1080p Latino

1.415 vistas

Información de The Animatrix (2003) REMUX 1080p Latino

Datos de la película

  • Calidad: Full 1080p
  • Audio: Español Latino AC3 5.1 BLURAY - Ingles AC3 5.1 BLURAY
  • Subtitulos: Español Latino SRT- FORZADOS SRT
  • Resolución: 1920x1080p
  • Formato: MKV
  • Codec: H.264
  • Encoder: Dracarys
  • Mediainfo: Clic para Mostrar Datos Ver
  • Format                      : Matroska
    Format version              : Version 4
    File size                   : 16.6 GiB
    Duration                    : 1 h 40 min
    Overall bit rate mode       : Variable
    Overall bit rate            : 23.6 Mb/s
    Movie name                  : CinemaniaHDD.net
    Encoded date                : UTC 2020-01-21 00:30:32
    Writing application         : mkvmerge v38.0.0 ('The Silent Type') 64-bit
    Writing library             : libebml v1.3.9 + libmatroska v1.5.2

    Video
    ID                          : 1
    Format                      : VC-1
    Format profile              : Advanced@L3
    Codec ID                    : V_MS/VFW/FOURCC / WVC1
    Codec ID/Hint               : Microsoft
    Duration                    : 1 h 40 min
    Bit rate                    : 20.4 Mb/s
    Width                       : 1 920 pixels
    Height                      : 1 080 pixels
    Display aspect ratio        : 16:9
    Frame rate mode             : Constant
    Frame rate                  : 23.976 (24000/1001) FPS
    Color space                 : YUV
    Chroma subsampling          : 4:2:0
    Bit depth                   : 8 bits
    Scan type                   : Progressive
    Compression mode            : Lossy
    Bits/(Pixel*Frame)          : 0.411
    Stream size                 : 14.4 GiB (87%)
    Language                    : English
    Default                     : Yes
    Forced                      : No

    Audio #1
    ID                          : 2
    Format                      : MLP FBA
    Format/Info                 : Meridian Lossless Packing FBA
    Commercial name             : Dolby TrueHD
    Codec ID                    : A_TRUEHD
    Duration                    : 1 h 40 min
    Bit rate mode               : Variable
    Bit rate                    : 1 822 kb/s
    Maximum bit rate            : 3 267 kb/s
    Channel(s)                  : 6 channels
    Channel layout              : L R C LFE Ls Rs
    Sampling rate               : 48.0 kHz
    Frame rate                  : 1 200.000 FPS (40 SPF)
    Compression mode            : Lossless
    Stream size                 : 1.28 GiB (8%)
    Language                    : English
    Default                     : No
    Forced                      : No

    Audio #2
    ID                          : 3
    Format                      : AC-3
    Format/Info                 : Audio Coding 3
    Commercial name             : Dolby Digital
    Codec ID                    : A_AC3
    Duration                    : 1 h 40 min
    Bit rate mode               : Constant
    Bit rate                    : 640 kb/s
    Channel(s)                  : 6 channels
    Channel layout              : L R C LFE Ls Rs
    Sampling rate               : 48.0 kHz
    Frame rate                  : 31.250 FPS (1536 SPF)
    Bit depth                   : 16 bits
    Compression mode            : Lossy
    Stream size                 : 462 MiB (3%)
    Language                    : Spanish
    Service kind                : Complete Main
    Default                     : Yes
    Forced                      : No

    Audio #3
    ID                          : 4
    Format                      : AC-3
    Format/Info                 : Audio Coding 3
    Commercial name             : Dolby Digital
    Codec ID                    : A_AC3
    Duration                    : 1 h 40 min
    Bit rate mode               : Constant
    Bit rate                    : 640 kb/s
    Channel(s)                  : 6 channels
    Channel layout              : L R C LFE Ls Rs
    Sampling rate               : 48.0 kHz
    Frame rate                  : 31.250 FPS (1536 SPF)
    Bit depth                   : 16 bits
    Compression mode            : Lossy
    Stream size                 : 461 MiB (3%)
    Language                    : English
    Service kind                : Complete Main
    Default                     : No
    Forced                      : No

    Text #1
    ID                          : 5
    Format                      : VobSub
    Muxing mode                 : zlib
    Codec ID                    : S_VOBSUB
    Codec ID/Info               : Picture based subtitle format used on DVDs
    Duration                    : 1 h 32 min
    Bit rate                    : 4 354 b/s
    Count of elements           : 544
    Stream size                 : 2.89 MiB (0%)
    Language                    : Spanish
    Default                     : No
    Forced                      : No

    Text #2
    ID                          : 6
    Format                      : UTF-8
    Codec ID                    : S_TEXT/UTF8
    Codec ID/Info               : UTF-8 Plain Text
    Duration                    : 1 h 32 min
    Bit rate                    : 27 b/s
    Count of elements           : 544
    Stream size                 : 18.7 KiB (0%)
    Language                    : Spanish
    Default                     : No
    Forced                      : No

    Menu
    00:00:00.000                : en:(01)00:00:00:000
    00:09:34.031                : en:(02)00:09:34:031
    00:18:48.877                : en:(03)00:18:48:877
    00:28:11.981                : en:(04)00:28:11:981
    00:37:50.601                : en:(05)00:37:50:601
    00:45:06.161                : en:(06)00:45:06:161
    00:53:49.976                : en:(07)00:53:49:976
    01:06:53.717                : en:(08)01:06:53:717
    01:16:44.349                : en:(09)01:16:44:349
    01:33:01.701                : en:(10)01:33:01:701

  • Peso: 16.6 GiB

Sinopsis

Directamente de los creadores de la revolucionaria trilogía de Matrix, esta colección de cortos de animación de los principales directores de anime del mundo, fusionan gráficos por ordenador y el anime japonés para ilustrar los antecedentes del universo de Matrix y el conflicto entre el hombre y las máquinas. Los cortos son: El último vuelo de Osiris, El Segundo Renacimiento, Historia de Niños, Programa, Récord mundial, Más allá, Una historia de detectives y Matriculado.

Ficha técnica

Video trailer de la película

Enlaces de descarga

Rip de Bluray

Descargar The Animatrix (2003) REMUX 1080p Latino


Aportes de DPeliculasHDmega la pass es:dpeliculashdmega.org Aportes de CinemaniaHD la pass es:cinemaniahdd.com Aportes recientes:cinemaniahdd.net
Guardado en : Animación , Ciencia ficción , Remux

Películas relacionadas

  • Ghostbusters: El Legado (2021) REMUX 1080p Latino

    Ghostbusters: El Legado (2021) REMUX 1080p Latino

    2021
    Ghostbusters: El Legado (2021) REMUX 1080p Latino

    2h 4m 2021

    Descargar Ghostbusters: El Legado (2021) REMUX 1080p Latino. Una madre soltera y sus dos hijos se van...

    Director: Jason Reitman

    Género: Aventura

    Actores: Tracy Letts

  • Footloose (2011) REMUX 1080p Latino-CMHDD

    Footloose (2011) REMUX 1080p Latino-CMHDD

    2011
    Footloose (2011) REMUX 1080p Latino-CMHDD

    1h 53m 2011

    Descargar Footloose (2011) REMUX 1080p Latino-CMHDD. Remake de la película homónima que narra la historia...

    Director: Rosemary C. Cremona

    Género: Drama

    Actores: Ziah Colon

descargar The Animatrix (2003) REMUX 1080p Latino Full 1080p 1080p gratis, The Animatrix (2003) REMUX 1080p Latino Full 1080p mega 1 link, The Animatrix (2003) REMUX 1080p Latino Full 1080p pelicula completa, descargar The Animatrix (2003) REMUX 1080p Latino Full 1080p gratis en mega.

The Animatrix (2003) REMUX 1080p Latino pelicula full hd, The Animatrix (2003) REMUX 1080p Latino mega latino, The Animatrix (2003) REMUX 1080p Latino 4k latino, The Animatrix (2003) REMUX 1080p Latino pelicula completa, The Animatrix (2003) REMUX 1080p Latino descargar gratis, descargar The Animatrix (2003) REMUX 1080p Latino pelicula latino, The Animatrix (2003) REMUX 1080p Latino 1 link mega, The Animatrix (2003) REMUX 1080p Latino 1 link google drive, The Animatrix (2003) REMUX 1080p Latino hd 1080p latino.
Comentarios 0