×

¿Problemas para descargar con Mozilla, EDGE? Deshabilita la opción "Abrir vinculos en una pestaña nueva" tal como lo muestra ésta imagen.

The Amazing Spider-Man 2 (2014) REMUX 1080p Latino – CMHDD

777 vistas

Información de The Amazing Spider-Man 2 (2014) REMUX 1080p Latino – CMHDD

Datos de la película

  • Calidad: Full 1080p
  • Audio: Español Latino AC3 5.1 BLURAY - Ingles DTS 5.1 BLURAY
  • Subtitulos: Español Latino PGS
  • Resolución: 1920x1080p
  • Formato: MKV
  • Codec: H.264
  • Encoder: Dracarys
  • Mediainfo: Clic para Mostrar Datos Ver
  • Format                      : Matroska
    Format version              : Version 4
    File size                   : 25.7 GiB
    Duration                    : 2 h 21 min
    Overall bit rate mode       : Variable
    Overall bit rate            : 25.9 Mb/s
    Movie name                  : The Amazing Spider-Man 2 (2014) REMUX 1080p Latino - CMHDD
    Encoded date                : UTC 2022-01-16 22:06:34
    Writing application         : mkvmerge v17.0.0 ('Be Ur Friend') 64-bit
    Writing library             : libebml v1.3.5 + libmatroska v1.4.8

    Video
    ID                          : 1
    Format                      : AVC
    Format/Info                 : Advanced Video Codec
    Format profile              : High@L4.1
    Format settings             : CABAC / 2 Ref Frames
    Format settings, CABAC      : Yes
    Format settings, Reference  : 2 frames
    Format settings, GOP        : M=1, N=10
    Codec ID                    : V_MPEG4/ISO/AVC
    Duration                    : 2 h 21 min
    Bit rate mode               : Variable
    Bit rate                    : 22.9 Mb/s
    Width                       : 1 920 pixels
    Height                      : 1 080 pixels
    Display aspect ratio        : 16:9
    Frame rate mode             : Constant
    Frame rate                  : 23.976 (24000/1001) FPS
    Color space                 : YUV
    Chroma subsampling          : 4:2:0
    Bit depth                   : 8 bits
    Scan type                   : Progressive
    Bits/(Pixel*Frame)          : 0.460
    Stream size                 : 22.6 GiB (88%)
    Default                     : Yes
    Forced                      : No

    Audio #1
    ID                          : 2
    Format                      : DTS XLL
    Format/Info                 : Digital Theater Systems
    Commercial name             : DTS-HD Master Audio
    Codec ID                    : A_DTS
    Duration                    : 2 h 21 min
    Bit rate mode               : Variable
    Bit rate                    : 2 373 kb/s
    Channel(s)                  : 6 channels
    Channel layout              : C L R Ls Rs LFE
    Sampling rate               : 48.0 kHz
    Frame rate                  : 93.750 FPS (512 SPF)
    Bit depth                   : 16 bits
    Compression mode            : Lossless
    Stream size                 : 2.35 GiB (9%)
    Language                    : English
    Default                     : No
    Forced                      : No

    Audio #2
    ID                          : 3
    Format                      : AC-3
    Format/Info                 : Audio Coding 3
    Commercial name             : Dolby Digital
    Codec ID                    : A_AC3
    Duration                    : 2 h 21 min
    Bit rate mode               : Constant
    Bit rate                    : 640 kb/s
    Channel(s)                  : 6 channels
    Channel layout              : L R C LFE Ls Rs
    Sampling rate               : 48.0 kHz
    Frame rate                  : 31.250 FPS (1536 SPF)
    Compression mode            : Lossy
    Stream size                 : 648 MiB (2%)
    Language                    : Spanish
    Service kind                : Complete Main
    Default                     : Yes
    Forced                      : No

    Text #1
    ID                          : 4
    Format                      : PGS
    Muxing mode                 : zlib
    Codec ID                    : S_HDMV/PGS
    Codec ID/Info               : Picture based subtitle format used on BDs/HD-DVDs
    Duration                    : 2 h 21 min
    Bit rate                    : 26.8 kb/s
    Count of elements           : 3419
    Stream size                 : 27.1 MiB (0%)
    Language                    : Spanish
    Default                     : No
    Forced                      : No

    Text #2
    ID                          : 5
    Format                      : PGS
    Muxing mode                 : zlib
    Codec ID                    : S_HDMV/PGS
    Codec ID/Info               : Picture based subtitle format used on BDs/HD-DVDs
    Duration                    : 2 h 20 min
    Bit rate                    : 56.1 kb/s
    Count of elements           : 5601
    Stream size                 : 56.4 MiB (0%)
    Language                    : Spanish
    Default                     : No
    Forced                      : No

    Menu
    00:00:00.000                : en:Chapter 1
    00:07:05.341                : en:Chapter 2
    00:14:28.200                : en:Chapter 3
    00:20:13.837                : en:Chapter 4
    00:29:27.098                : en:Chapter 5
    00:39:02.590                : en:Chapter 6
    00:50:56.803                : en:Chapter 7
    00:59:52.755                : en:Chapter 8
    01:08:53.129                : en:Chapter 9
    01:16:19.950                : en:Chapter 10
    01:25:27.705                : en:Chapter 11
    01:35:23.259                : en:Chapter 12
    01:41:30.334                : en:Chapter 13
    01:49:18.343                : en:Chapter 14
    01:57:00.638                : en:Chapter 15
    02:04:44.351                : en:Chapter 16

  • Peso: 25.7 GiB

Sinopsis

Peter Parker lleva una vida muy ocupada, compaginando su tiempo entre su papel como Spider-Man, acabando con los malos, y en el instituto con la persona a la que quiere, Gwen. Peter no ve el momento de graduarse. No ha olvidado la promesa que le hizo al padre de Gwen de protegerla, manteniéndose lejos de ella, pero es una promesa que simplemente no puede cumplir. Las cosas cambiarán para Peter cuando aparece un nuevo villano, Electro, y un viejo amigo, Harry Osborn, regresa, al tiempo que descubre nuevas pistas sobre su pasado.

Ficha técnica

Video trailer de la película

Enlaces de descarga

Rip de Bluray

Descargar The Amazing Spider-Man 2 (2014) REMUX 1080p Latino – CMHDD


Aportes de DPeliculasHDmega la pass es:dpeliculashdmega.org Aportes de CinemaniaHD la pass es:cinemaniahdd.com
Guardado en : Acción , Aventura , Fantasía

Películas relacionadas

descargar The Amazing Spider-Man 2 (2014) REMUX 1080p Latino – CMHDD Full 1080p 1080p gratis, The Amazing Spider-Man 2 (2014) REMUX 1080p Latino – CMHDD Full 1080p mega 1 link, The Amazing Spider-Man 2 (2014) REMUX 1080p Latino – CMHDD Full 1080p pelicula completa, descargar The Amazing Spider-Man 2 (2014) REMUX 1080p Latino – CMHDD Full 1080p gratis en mega.

The Amazing Spider-Man 2 (2014) REMUX 1080p Latino – CMHDD pelicula full hd, The Amazing Spider-Man 2 (2014) REMUX 1080p Latino – CMHDD mega latino, The Amazing Spider-Man 2 (2014) REMUX 1080p Latino – CMHDD 4k latino, The Amazing Spider-Man 2 (2014) REMUX 1080p Latino – CMHDD pelicula completa, The Amazing Spider-Man 2 (2014) REMUX 1080p Latino – CMHDD descargar gratis, descargar The Amazing Spider-Man 2 (2014) REMUX 1080p Latino – CMHDD pelicula latino, The Amazing Spider-Man 2 (2014) REMUX 1080p Latino – CMHDD 1 link mega, The Amazing Spider-Man 2 (2014) REMUX 1080p Latino – CMHDD 1 link google drive, The Amazing Spider-Man 2 (2014) REMUX 1080p Latino – CMHDD hd 1080p latino.
Comentarios 0