×

¿Problemas para descargar con Mozilla, EDGE? Deshabilita la opción "Abrir vinculos en una pestaña nueva" tal como lo muestra ésta imagen.

The Age of Innocence (1993) REMUX 1080p Latino – CMHDD

168 vistas

Información de The Age of Innocence (1993) REMUX 1080p Latino – CMHDD

Datos de la película

  • Calidad: Full 1080p
  • Audio: Español Latino AC3 2.0 BLURAY - Ingles DTS 5.1 BLURAY
  • Subtitulos: Español Latino PGS
  • Resolución: 1920x1080p
  • Formato: MKV
  • Codec: H.264
  • Encoder: Dracarys
  • Mediainfo: Clic para Mostrar Datos Ver
  • Format                      : Matroska
    Format version              : Version 4
    File size                   : 30.8 GiB
    Duration                    : 2 h 18 min
    Overall bit rate mode       : Variable
    Overall bit rate            : 31.9 Mb/s
    Movie name                  : The Age of Innocence (1993) REMUX 1080p Latino - CMHDD
    Encoded date                : UTC 2021-05-15 20:17:16
    Writing application         : mkvmerge v56.1.0 ('My Friend') 64-bit
    Writing library             : libebml v1.4.2 + libmatroska v1.6.4
    Cover                       : Yes
    Attachments                 : cover.jpg

    Video
    ID                          : 1
    ID in the original source m : 4113 (0x1011)
    Format                      : AVC
    Format/Info                 : Advanced Video Codec
    Format profile              : High@L4.1
    Format settings             : CABAC / 2 Ref Frames
    Format settings, CABAC      : Yes
    Format settings, Reference  : 2 frames
    Codec ID                    : V_MPEG4/ISO/AVC
    Duration                    : 2 h 18 min
    Bit rate mode               : Variable
    Bit rate                    : 27.9 Mb/s
    Width                       : 1 920 pixels
    Height                      : 1 080 pixels
    Display aspect ratio        : 16:9
    Frame rate mode             : Constant
    Frame rate                  : 23.976 (24000/1001) FPS
    Color space                 : YUV
    Chroma subsampling          : 4:2:0
    Bit depth                   : 8 bits
    Scan type                   : Progressive
    Bits/(Pixel*Frame)          : 0.561
    Stream size                 : 27.0 GiB (88%)
    Default                     : Yes
    Forced                      : No
    Original source medium      : Blu-ray

    Audio #1
    ID                          : 2
    ID in the original source m : 4352 (0x1100)
    Format                      : DTS XLL
    Format/Info                 : Digital Theater Systems
    Commercial name             : DTS-HD Master Audio
    Codec ID                    : A_DTS
    Duration                    : 2 h 18 min
    Bit rate mode               : Variable
    Bit rate                    : 3 755 kb/s
    Channel(s)                  : 6 channels
    Channel layout              : C L R Ls Rs LFE
    Sampling rate               : 48.0 kHz
    Frame rate                  : 93.750 FPS (512 SPF)
    Bit depth                   : 24 bits
    Compression mode            : Lossless
    Stream size                 : 3.63 GiB (12%)
    Language                    : English
    Default                     : No
    Forced                      : No
    Original source medium      : Blu-ray

    Audio #2
    ID                          : 3
    ID in the original source m : 4359 (0x1107)
    Format                      : AC-3
    Format/Info                 : Audio Coding 3
    Commercial name             : Dolby Digital
    Codec ID                    : A_AC3
    Duration                    : 2 h 18 min
    Bit rate mode               : Constant
    Bit rate                    : 192 kb/s
    Channel(s)                  : 2 channels
    Channel layout              : L R
    Sampling rate               : 48.0 kHz
    Frame rate                  : 31.250 FPS (1536 SPF)
    Compression mode            : Lossy
    Stream size                 : 190 MiB (1%)
    Language                    : Spanish
    Service kind                : Complete Main
    Default                     : Yes
    Forced                      : No
    Original source medium      : Blu-ray

    Text
    ID                          : 4
    ID in the original source m : 4630 (0x1216)
    Format                      : PGS
    Muxing mode                 : zlib
    Codec ID                    : S_HDMV/PGS
    Codec ID/Info               : Picture based subtitle format used on BDs/HD-DVDs
    Duration                    : 2 h 9 min
    Bit rate                    : 39.6 kb/s
    Count of elements           : 3018
    Stream size                 : 36.8 MiB (0%)
    Language                    : Spanish
    Default                     : No
    Forced                      : No
    Original source medium      : Blu-ray

    Menu
    00:00:00.000                : Chapter 01
    00:09:56.095                : Chapter 02
    00:17:44.146                : Chapter 03
    00:24:49.488                : Chapter 04
    00:31:56.414                : Chapter 05
    00:39:40.294                : Chapter 06
    00:49:30.634                : Chapter 07
    00:57:50.925                : Chapter 08
    01:08:36.529                : Chapter 09
    01:15:29.274                : Chapter 10
    01:24:35.195                : Chapter 11
    01:32:53.484                : Chapter 12
    01:42:20.384                : Chapter 13
    01:51:25.220                : Chapter 14
    01:57:30.001                : Chapter 15
    02:08:57.187                : Chapter 16

  • Peso: 30.8 GiB

Sinopsis

Nueva York, año 1870. Newland Archer, un caballero de la alta sociedad neoyorquina, está prometido con May Welland, una joven de su misma clase social. Pero sus sentimientos cambian cuando conoce a la poco convencional prima de May, la condesa Olenska. Desde el principio, defenderá la difícil posición de la condesa, cuya separación de un marido autoritario la ha convertido en una especie de proscrita dentro de su propia clase social.

Ficha técnica

  • Titulo original: The Age of Innocence
  • Fecha de lanzamiento: 10-09-1993 (United States of America)
  • Director: Martin Scorsese
  • Género: Drama, Romance

Video trailer de la película

Enlaces de descarga

Rip de Bluray

Descargar The Age of Innocence (1993) REMUX 1080p Latino – CMHDD


Aportes de DPeliculasHDmega la pass es:dpeliculashdmega.org Aportes de CinemaniaHD la pass es:cinemaniahdd.com
Guardado en : Drama , Romance

Películas relacionadas

descargar The Age of Innocence (1993) REMUX 1080p Latino – CMHDD Full 1080p 1080p gratis, The Age of Innocence (1993) REMUX 1080p Latino – CMHDD Full 1080p mega 1 link, The Age of Innocence (1993) REMUX 1080p Latino – CMHDD Full 1080p pelicula completa, descargar The Age of Innocence (1993) REMUX 1080p Latino – CMHDD Full 1080p gratis en mega.

The Age of Innocence (1993) REMUX 1080p Latino – CMHDD pelicula full hd, The Age of Innocence (1993) REMUX 1080p Latino – CMHDD mega latino, The Age of Innocence (1993) REMUX 1080p Latino – CMHDD 4k latino, The Age of Innocence (1993) REMUX 1080p Latino – CMHDD pelicula completa, The Age of Innocence (1993) REMUX 1080p Latino – CMHDD descargar gratis, descargar The Age of Innocence (1993) REMUX 1080p Latino – CMHDD pelicula latino, The Age of Innocence (1993) REMUX 1080p Latino – CMHDD 1 link mega, The Age of Innocence (1993) REMUX 1080p Latino – CMHDD 1 link google drive, The Age of Innocence (1993) REMUX 1080p Latino – CMHDD hd 1080p latino.