×

¿Problemas para descargar con Mozilla, EDGE? Deshabilita la opción "Abrir vinculos en una pestaña nueva" tal como lo muestra ésta imagen.

The Age of Innocence (1993) Full HD 1080p Latino – CMHDD

178 vistas

Información de The Age of Innocence (1993) Full HD 1080p Latino – CMHDD

Datos de la película

  • Calidad: Full 1080p
  • Audio: Español Latino AC3 2.0 BLURAY - Ingles DTS 5.1 BLURAY
  • Subtitulos: Español Latino PGS
  • Resolución: 1920x1080p
  • Formato: MKV
  • Codec: H.264
  • Encoder: Dracarys
  • Mediainfo: Clic para Mostrar Datos Ver
  • Format                      : Matroska
    Format version              : Version 4
    File size                   : 9.16 GiB
    Duration                    : 2 h 18 min
    Overall bit rate mode       : Variable
    Overall bit rate            : 9 478 kb/s
    Movie name                  : The Age of Innocence (1993) Full HD 1080p Latino - CMHDD
    Encoded date                : UTC 2021-05-19 01:45:57
    Writing application         : mkvmerge v56.1.0 ('My Friend') 64-bit
    Writing library             : libebml v1.4.2 + libmatroska v1.6.4

    Video
    ID                          : 1
    Format                      : AVC
    Format/Info                 : Advanced Video Codec
    Format profile              : High@L4.1
    Format settings             : CABAC / 4 Ref Frames
    Format settings, CABAC      : Yes
    Format settings, Reference  : 4 frames
    Codec ID                    : V_MPEG4/ISO/AVC
    Duration                    : 2 h 18 min
    Bit rate                    : 5 516 kb/s
    Width                       : 1 920 pixels
    Height                      : 1 080 pixels
    Display aspect ratio        : 16:9
    Frame rate mode             : Constant
    Frame rate                  : 23.976 (24000/1001) FPS
    Color space                 : YUV
    Chroma subsampling          : 4:2:0
    Bit depth                   : 8 bits
    Scan type                   : Progressive
    Bits/(Pixel*Frame)          : 0.111
    Stream size                 : 5.33 GiB (58%)
    Writing library             : x264 core 157 r2935 545de2f
    Encoding settings           : cabac=1 / ref=4 / deblock=1:0:0 / analyse=0x3:0x133 / me=tesa / subme=11 / psy=1 / psy_rd=1.00:0.00 / mixed_ref=1 / me_range=24 / chroma_me=1 / trellis=2 / 8x8dct=1 / cqm=0 / deadzone=21,11 / fast_pskip=0 / chroma_qp_offset=-2 / threads=24 / lookahead_threads=6 / sliced_threads=0 / nr=0 / decimate=1 / interlaced=0 / bluray_compat=0 / constrained_intra=0 / bframes=16 / b_pyramid=2 / b_adapt=2 / b_bias=0 / direct=3 / weightb=1 / open_gop=0 / weightp=2 / keyint=240 / keyint_min=24 / scenecut=40 / intra_refresh=0 / rc_lookahead=60 / rc=crf / mbtree=1 / crf=20.0 / qcomp=0.60 / qpmin=0 / qpmax=69 / qpstep=4 / vbv_maxrate=62500 / vbv_bufsize=78125 / crf_max=0.0 / nal_hrd=none / filler=0 / ip_ratio=1.40 / aq=1:1.00
    Default                     : Yes
    Forced                      : No
    Color range                 : Limited
    Color primaries             : BT.709
    Transfer characteristics    : BT.709
    Matrix coefficients         : BT.709

    Audio #1
    ID                          : 2
    Format                      : AC-3
    Format/Info                 : Audio Coding 3
    Commercial name             : Dolby Digital
    Codec ID                    : A_AC3
    Duration                    : 2 h 18 min
    Bit rate mode               : Constant
    Bit rate                    : 192 kb/s
    Channel(s)                  : 2 channels
    Channel layout              : L R
    Sampling rate               : 48.0 kHz
    Frame rate                  : 31.250 FPS (1536 SPF)
    Compression mode            : Lossy
    Stream size                 : 190 MiB (2%)
    Language                    : Spanish
    Service kind                : Complete Main
    Default                     : Yes
    Forced                      : No

    Audio #2
    ID                          : 3
    Format                      : DTS XLL
    Format/Info                 : Digital Theater Systems
    Commercial name             : DTS-HD Master Audio
    Codec ID                    : A_DTS
    Duration                    : 2 h 18 min
    Bit rate mode               : Variable
    Bit rate                    : 3 755 kb/s
    Channel(s)                  : 6 channels
    Channel layout              : C L R Ls Rs LFE
    Sampling rate               : 48.0 kHz
    Frame rate                  : 93.750 FPS (512 SPF)
    Bit depth                   : 24 bits
    Compression mode            : Lossless
    Stream size                 : 3.63 GiB (40%)
    Language                    : English
    Default                     : No
    Forced                      : No

    Text
    ID                          : 4
    Format                      : PGS
    Muxing mode                 : zlib
    Codec ID                    : S_HDMV/PGS
    Codec ID/Info               : Picture based subtitle format used on BDs/HD-DVDs
    Duration                    : 2 h 9 min
    Bit rate                    : 39.6 kb/s
    Count of elements           : 3018
    Stream size                 : 36.8 MiB (0%)
    Language                    : Spanish
    Default                     : No
    Forced                      : No

    Menu
    00:00:00.000                : :Chapter 1
    00:09:56.096                : :Chapter 2
    00:17:44.230                : :Chapter 3
    00:24:49.488                : :Chapter 4
    00:31:56.415                : :Chapter 5
    00:39:40.295                : :Chapter 6
    00:49:30.718                : :Chapter 7
    00:57:50.926                : :Chapter 8
    01:08:36.613                : :Chapter 9
    01:15:29.275                : :Chapter 10
    01:24:35.279                : :Chapter 11
    01:32:53.485                : :Chapter 12
    01:42:20.468                : :Chapter 13
    01:51:25.304                : :Chapter 14
    01:57:30.085                : :Chapter 15
    02:08:57.188                : :Chapter 16

  • Peso: 9.16 GiB

Sinopsis

Nueva York, año 1870. Newland Archer, un caballero de la alta sociedad neoyorquina, está prometido con May Welland, una joven de su misma clase social. Pero sus sentimientos cambian cuando conoce a la poco convencional prima de May, la condesa Olenska. Desde el principio, defenderá la difícil posición de la condesa, cuya separación de un marido autoritario la ha convertido en una especie de proscrita dentro de su propia clase social.

Ficha técnica

  • Titulo original: The Age of Innocence
  • Fecha de lanzamiento: 10-09-1993 (United States of America)
  • Director: Martin Scorsese
  • Género: Drama, Romance

Video trailer de la película

Enlaces de descarga

Rip de Bluray

Descargar The Age of Innocence (1993) Full HD 1080p Latino – CMHDD




Aportes de DPeliculasHDmega la pass es:dpeliculashdmega.org Aportes de CinemaniaHD la pass es:cinemaniahdd.com
Guardado en : Drama , Romance

Películas relacionadas

descargar The Age of Innocence (1993) Full HD 1080p Latino – CMHDD Full 1080p 1080p gratis, The Age of Innocence (1993) Full HD 1080p Latino – CMHDD Full 1080p mega 1 link, The Age of Innocence (1993) Full HD 1080p Latino – CMHDD Full 1080p pelicula completa, descargar The Age of Innocence (1993) Full HD 1080p Latino – CMHDD Full 1080p gratis en mega.

The Age of Innocence (1993) Full HD 1080p Latino – CMHDD pelicula full hd, The Age of Innocence (1993) Full HD 1080p Latino – CMHDD mega latino, The Age of Innocence (1993) Full HD 1080p Latino – CMHDD 4k latino, The Age of Innocence (1993) Full HD 1080p Latino – CMHDD pelicula completa, The Age of Innocence (1993) Full HD 1080p Latino – CMHDD descargar gratis, descargar The Age of Innocence (1993) Full HD 1080p Latino – CMHDD pelicula latino, The Age of Innocence (1993) Full HD 1080p Latino – CMHDD 1 link mega, The Age of Innocence (1993) Full HD 1080p Latino – CMHDD 1 link google drive, The Age of Innocence (1993) Full HD 1080p Latino – CMHDD hd 1080p latino.
Comentarios 0