×

¿Problemas para descargar con Mozilla, EDGE? Deshabilita la opción "Abrir vinculos en una pestaña nueva" tal como lo muestra ésta imagen.

The Age of Adeline (2015) REMUX 1080p Latino – CMHDD

150 vistas

Información de The Age of Adeline (2015) REMUX 1080p Latino – CMHDD

Datos de la película

  • Calidad: Full 1080p
  • Audio: Español Latino AC3 5.1 BLURAY - Ingles AC3 5.1 BLURAY
  • Subtitulos: Español Latino SRT- FORZADOS SRT
  • Resolución: 19201080p
  • Formato: MKV
  • Codec: H.264
  • Encoder: Dracarys
  • Mediainfo: Clic para Mostrar Datos Ver
  • Format                      : Matroska
    Format version              : Version 4
    File size                   : 32.8 GiB
    Duration                    : 1 h 52 min
    Overall bit rate mode       : Variable
    Overall bit rate            : 41.6 Mb/s
    Movie name                  : The Age of Adeline (2015) REMUX 1080p Latino - CMHDD
    Encoded date                : UTC 2023-12-21 00:31:14
    Writing application         : mkvmerge v47.0.0 ('Black Flag') 64-bit
    Writing library             : libebml v1.3.10 + libmatroska v1.5.2

    Video
    ID                          : 1
    Format                      : AVC
    Format/Info                 : Advanced Video Codec
    Format profile              : High@L4.1
    Format settings             : CABAC / 4 Ref Frames
    Format settings, CABAC      : Yes
    Format settings, Reference  : 4 frames
    Codec ID                    : V_MPEG4/ISO/AVC
    Duration                    : 1 h 52 min
    Bit rate mode               : Variable
    Bit rate                    : 36.0 Mb/s
    Width                       : 1 920 pixels
    Height                      : 1 080 pixels
    Display aspect ratio        : 16:9
    Frame rate mode             : Constant
    Frame rate                  : 23.976 (24000/1001) FPS
    Color space                 : YUV
    Chroma subsampling          : 4:2:0
    Bit depth                   : 8 bits
    Scan type                   : Progressive
    Bits/(Pixel*Frame)          : 0.724
    Stream size                 : 28.2 GiB (86%)
    Default                     : Yes
    Forced                      : No

    Audio #1
    ID                          : 2
    Format                      : E-AC-3
    Format/Info                 : Enhanced AC-3
    Commercial name             : Dolby Digital Plus
    Codec ID                    : A_EAC3
    Duration                    : 1 h 52 min
    Bit rate mode               : Constant
    Bit rate                    : 640 kb/s
    Channel(s)                  : 6 channels
    Channel layout              : L R C LFE Ls Rs
    Sampling rate               : 48.0 kHz
    Frame rate                  : 31.250 FPS (1536 SPF)
    Compression mode            : Lossy
    Stream size                 : 516 MiB (2%)
    Language                    : Spanish
    Service kind                : Complete Main
    Default                     : Yes
    Forced                      : No

    Audio #2
    ID                          : 3
    Format                      : MLP FBA 16-ch
    Format/Info                 : Meridian Lossless Packing FBA with 16-channel presentation
    Commercial name             : Dolby TrueHD with Dolby Atmos
    Codec ID                    : A_TRUEHD
    Duration                    : 1 h 52 min
    Bit rate mode               : Variable
    Bit rate                    : 4 414 kb/s
    Maximum bit rate            : 5 490 kb/s
    Channel(s)                  : 8 channels
    Channel layout              : L R C LFE Ls Rs Lb Rb
    Sampling rate               : 48.0 kHz
    Frame rate                  : 1 200.000 FPS (40 SPF)
    Compression mode            : Lossless
    Stream size                 : 3.47 GiB (11%)
    Language                    : English
    Default                     : No
    Forced                      : No
    Number of dynamic objects   : 11
    Bed channel count           : 1 channel
    Bed channel configuration   : LFE

    Audio #3
    ID                          : 4
    Format                      : AC-3
    Format/Info                 : Audio Coding 3
    Commercial name             : Dolby Digital
    Codec ID                    : A_AC3
    Duration                    : 1 h 52 min
    Bit rate mode               : Constant
    Bit rate                    : 640 kb/s
    Channel(s)                  : 6 channels
    Channel layout              : L R C LFE Ls Rs
    Sampling rate               : 48.0 kHz
    Frame rate                  : 31.250 FPS (1536 SPF)
    Compression mode            : Lossy
    Stream size                 : 515 MiB (2%)
    Language                    : English
    Service kind                : Complete Main
    Default                     : No
    Forced                      : No

    Text
    ID                          : 5
    Format                      : UTF-8
    Codec ID                    : S_TEXT/UTF8
    Codec ID/Info               : UTF-8 Plain Text
    Duration                    : 1 h 44 min
    Bit rate                    : 54 b/s
    Frame rate                  : 0.197 FPS
    Count of elements           : 1236
    Stream size                 : 41.5 KiB (0%)
    Language                    : Spanish
    Default                     : No
    Forced                      : No

    Menu
    00:00:00.000                : en:00:00:00.000
    00:16:53.137                : en:00:16:53.137
    00:28:10.898                : en:00:28:10.898
    00:46:45.594                : en:00:46:45.594
    00:59:51.922                : en:00:59:51.922
    01:13:44.295                : en:01:13:44.295
    01:31:29.109                : en:01:31:29.109
    01:43:22.947                : en:01:43:22.947

     

  • Peso: 32.8 GiB

Sinopsis

Adaline Bowman (Blake Lively), nacida a comienzos del siglo XX, adquiere a los 29 años la eterna juventud tras un accidente. Tras años de vida solitaria y permanecer con la misma edad durante 8 décadas, conoce a Ellis Jones (Michiel Huisman), un hombre por el que podría merecer la pena perder la inmortalidad.

Ficha técnica

Video trailer de la película

Enlaces de descarga

Rip de Bluray

Descargar The Age of Adeline (2015) REMUX 1080p Latino – CMHDD




Aportes de DPeliculasHDmega la pass es:dpeliculashdmega.org Aportes de CinemaniaHD la pass es:cinemaniahdd.com Aportes recientes:cinemaniahdd.net
Guardado en : Drama , Fantasía , Romance

Películas relacionadas

descargar The Age of Adeline (2015) REMUX 1080p Latino – CMHDD Full 1080p 1080p gratis, The Age of Adeline (2015) REMUX 1080p Latino – CMHDD Full 1080p mega 1 link, The Age of Adeline (2015) REMUX 1080p Latino – CMHDD Full 1080p pelicula completa, descargar The Age of Adeline (2015) REMUX 1080p Latino – CMHDD Full 1080p gratis en mega.

The Age of Adeline (2015) REMUX 1080p Latino – CMHDD pelicula full hd, The Age of Adeline (2015) REMUX 1080p Latino – CMHDD mega latino, The Age of Adeline (2015) REMUX 1080p Latino – CMHDD 4k latino, The Age of Adeline (2015) REMUX 1080p Latino – CMHDD pelicula completa, The Age of Adeline (2015) REMUX 1080p Latino – CMHDD descargar gratis, descargar The Age of Adeline (2015) REMUX 1080p Latino – CMHDD pelicula latino, The Age of Adeline (2015) REMUX 1080p Latino – CMHDD 1 link mega, The Age of Adeline (2015) REMUX 1080p Latino – CMHDD 1 link google drive, The Age of Adeline (2015) REMUX 1080p Latino – CMHDD hd 1080p latino.
Comentarios 0