×

¿Problemas para descargar con Mozilla, EDGE? Deshabilita la opción "Abrir vinculos en una pestaña nueva" tal como lo muestra ésta imagen.

The Adventures of Bob & Doug McKenzie Strange Brew (1983) REMUX Latino – CMHDD

309 vistas

Información de The Adventures of Bob & Doug McKenzie Strange Brew (1983) REMUX Latino – CMHDD

Datos de la película

  • Calidad: Full 1080p
  • Audio: Se especifica abajo de la Sinopsis
  • Subtitulos: Español Latino SRT
  • Resolución: 1920x1080p
  • Formato: MKV
  • Codec: H.264
  • Encoder: Dracarys
  • Mediainfo: Clic para Mostrar Datos Ver
  • Format                      : Matroska
    Format version              : Version 4
    File size                   : 26.0 GiB
    Duration                    : 1 h 30 min
    Overall bit rate mode       : Variable
    Overall bit rate            : 41.1 Mb/s
    Movie name                  : The Adventures of Bob & Doug McKenzie Strange Brew (1983) REMUX Latino - CMHDD
    Encoded date                : UTC 2020-05-25 21:47:03
    Writing application         : mkvmerge v46.0.0 ('No Deeper Escape') 64-bit
    Writing library             : libebml v1.3.10 + libmatroska v1.5.2

    Video
    ID                          : 1
    Format                      : AVC
    Format/Info                 : Advanced Video Codec
    Format profile              : High@L4.1
    Format settings             : CABAC / 4 Ref Frames
    Format settings, CABAC      : Yes
    Format settings, Reference  : 4 frames
    Codec ID                    : V_MPEG4/ISO/AVC
    Duration                    : 1 h 30 min
    Bit rate mode               : Constant
    Bit rate                    : 40.0 Mb/s
    Width                       : 1 920 pixels
    Height                      : 1 080 pixels
    Display aspect ratio        : 16:9
    Frame rate mode             : Constant
    Frame rate                  : 23.976 (24000/1001) FPS
    Color space                 : YUV
    Chroma subsampling          : 4:2:0
    Bit depth                   : 8 bits
    Scan type                   : Progressive
    Bits/(Pixel*Frame)          : 0.804
    Stream size                 : 24.7 GiB (95%)
    Default                     : Yes
    Forced                      : No

    Audio #1
    ID                          : 2
    Format                      : AC-3
    Format/Info                 : Audio Coding 3
    Commercial name             : Dolby Digital
    Codec ID                    : A_AC3
    Duration                    : 1 h 30 min
    Bit rate mode               : Constant
    Bit rate                    : 192 kb/s
    Channel(s)                  : 2 channels
    Channel layout              : L R
    Sampling rate               : 48.0 kHz
    Frame rate                  : 31.250 FPS (1536 SPF)
    Compression mode            : Lossy
    Stream size                 : 124 MiB (0%)
    Language                    : Spanish
    Service kind                : Complete Main
    Default                     : Yes
    Forced                      : No

    Audio #2
    ID                          : 3
    Format                      : DTS XLL
    Format/Info                 : Digital Theater Systems
    Commercial name             : DTS-HD Master Audio
    Codec ID                    : A_DTS
    Duration                    : 1 h 30 min
    Bit rate mode               : Variable
    Bit rate                    : 1 845 kb/s
    Channel(s)                  : 2 channels
    Channel layout              : L R
    Sampling rate               : 48.0 kHz
    Frame rate                  : 93.750 FPS (512 SPF)
    Bit depth                   : 24 bits
    Compression mode            : Lossless
    Stream size                 : 1.17 GiB (4%)
    Language                    : English
    Default                     : No
    Forced                      : No

    Text
    ID                          : 4
    Format                      : PGS
    Muxing mode                 : zlib
    Codec ID                    : S_HDMV/PGS
    Codec ID/Info               : Picture based subtitle format used on BDs/HD-DVDs
    Duration                    : 1 h 30 min
    Bit rate                    : 40.1 kb/s
    Count of elements           : 2384
    Stream size                 : 25.9 MiB (0%)
    Language                    : Spanish
    Default                     : No
    Forced                      : No

    Menu
    00:00:00.000                : en:Capítulo 01
    00:02:43.371                : en:Capítulo 02
    00:07:13.349                : en:Capítulo 03
    00:09:30.820                : en:Capítulo 04
    00:12:55.816                : en:Capítulo 05
    00:16:16.141                : en:Capítulo 06
    00:20:12.878                : en:Capítulo 07
    00:22:47.532                : en:Capítulo 08
    00:27:18.762                : en:Capítulo 09
    00:31:44.736                : en:Capítulo 10
    00:37:23.532                : en:Capítulo 11
    00:39:55.976                : en:Capítulo 12
    00:45:32.813                : en:Capítulo 13
    00:48:39.666                : en:Capítulo 14
    00:51:01.224                : en:Capítulo 15
    00:53:33.251                : en:Capítulo 16
    00:57:21.896                : en:Capítulo 17
    00:59:20.848                : en:Capítulo 18
    01:02:34.667                : en:Capítulo 19
    01:06:19.100                : en:Capítulo 20
    01:09:30.875                : en:Capítulo 21
    01:12:58.749                : en:Capítulo 22
    01:17:40.447                : en:Capítulo 23
    01:21:26.798                : en:Capítulo 24
    01:25:23.326                : en:Capítulo 25
    01:26:52.665                : en:Capítulo 26

  • Peso: 26.0 GiB

Sinopsis

Los hermanos Bob y Doug Mackenzie ayudarán a la huérfana Pam a intentar recuperar la fábrica de cerveza fundada por su padre, recientemente fallecido.

 

 

Latino: AC3 2.0 BD  –  Ingles: DTS 2.0 BD

Ficha técnica

Video trailer de la película

Enlaces de descarga

Rip de Bluray

Descargar The Adventures of Bob & Doug McKenzie Strange Brew (1983) REMUX Latino – CMHDD


Aportes de DPeliculasHDmega la pass es:dpeliculashdmega.org Aportes de CinemaniaHD la pass es:cinemaniahdd.com
Guardado en : Comedia , Remux

Películas relacionadas

  • Hombre de familia (2000) REMUX 1080p Latino

    Hombre de familia (2000) REMUX 1080p Latino

    2000
    Hombre de familia (2000) REMUX 1080p Latino

    2h 1m 2000

    Descargar Hombre de familia (2000) REMUX 1080p Latino. Jack Campbell es un egocéntrico broker de Wall...

    Director: Robert Schroer

    Género: Comedia

    Actores: Wass Stevens

  • Anon (2018) REMUX 1080p Latino

    Anon (2018) REMUX 1080p Latino

    2018
    Anon (2018) REMUX 1080p Latino

    1h 40m 2018

    Descargar Anon (2018) REMUX 1080p Latino. Anon nos lleva hasta un futuro no muy lejano al estilo soviético,...

    Director: Sarah Campbell

    Género: Ciencia ficción

    Actores: Zion Lee

  • Te Amo Brother (2009) REMUX 1080p Latino

    Te Amo Brother (2009) REMUX 1080p Latino

    2009
    Te Amo Brother (2009) REMUX 1080p Latino

    1h 45m 2009

    Descargar Te Amo Brother (2009) REMUX 1080p Latino. Peter Klaven (Paul Rudd) es un joven que vive muy...

    Director: Scott Robertson

    Género: Comedia

    Actores: Vicki Davis

descargar The Adventures of Bob & Doug McKenzie Strange Brew (1983) REMUX Latino – CMHDD Full 1080p 1080p gratis, The Adventures of Bob & Doug McKenzie Strange Brew (1983) REMUX Latino – CMHDD Full 1080p mega 1 link, The Adventures of Bob & Doug McKenzie Strange Brew (1983) REMUX Latino – CMHDD Full 1080p pelicula completa, descargar The Adventures of Bob & Doug McKenzie Strange Brew (1983) REMUX Latino – CMHDD Full 1080p gratis en mega.

The Adventures of Bob & Doug McKenzie Strange Brew (1983) REMUX Latino – CMHDD pelicula full hd, The Adventures of Bob & Doug McKenzie Strange Brew (1983) REMUX Latino – CMHDD mega latino, The Adventures of Bob & Doug McKenzie Strange Brew (1983) REMUX Latino – CMHDD 4k latino, The Adventures of Bob & Doug McKenzie Strange Brew (1983) REMUX Latino – CMHDD pelicula completa, The Adventures of Bob & Doug McKenzie Strange Brew (1983) REMUX Latino – CMHDD descargar gratis, descargar The Adventures of Bob & Doug McKenzie Strange Brew (1983) REMUX Latino – CMHDD pelicula latino, The Adventures of Bob & Doug McKenzie Strange Brew (1983) REMUX Latino – CMHDD 1 link mega, The Adventures of Bob & Doug McKenzie Strange Brew (1983) REMUX Latino – CMHDD 1 link google drive, The Adventures of Bob & Doug McKenzie Strange Brew (1983) REMUX Latino – CMHDD hd 1080p latino.
Comentarios 0