×

¿Problemas para descargar con Mozilla, EDGE? Deshabilita la opción "Abrir vinculos en una pestaña nueva" tal como lo muestra ésta imagen.

The Adventures of Bob & Doug McKenzie Strange Brew (1983) HD Latino – CMHDD

286 vistas

Información de The Adventures of Bob & Doug McKenzie Strange Brew (1983) HD Latino – CMHDD

Datos de la película

  • Calidad: 1080p
  • Audio: Se especifica abajo de la Sinopsis
  • Subtitulos: Español Latino SRT
  • Resolución: 1920x1080p
  • Formato: MKV
  • Codec: H.264
  • Encoder: Dracarys
  • Mediainfo: Clic para Mostrar Datos Ver
  • Format                      : Matroska
    Format version              : Version 4
    File size                   : 2.74 GiB
    Duration                    : 1 h 30 min
    Overall bit rate            : 4 341 kb/s
    Movie name                  : The Adventures of Bob & Doug McKenzie Strange Brew (1983) HD Latino - CMHDD
    Encoded date                : UTC 2020-05-25 21:43:19
    Writing application         : mkvmerge v46.0.0 ('No Deeper Escape') 64-bit
    Writing library             : libebml v1.3.10 + libmatroska v1.5.2

    Video
    ID                          : 1
    Format                      : AVC
    Format/Info                 : Advanced Video Codec
    Format profile              : High@L4.1
    Format settings             : CABAC / 4 Ref Frames
    Format settings, CABAC      : Yes
    Format settings, Reference  : 4 frames
    Codec ID                    : V_MPEG4/ISO/AVC
    Duration                    : 1 h 30 min
    Bit rate                    : 3 500 kb/s
    Width                       : 1 920 pixels
    Height                      : 1 080 pixels
    Display aspect ratio        : 16:9
    Frame rate mode             : Constant
    Frame rate                  : 23.976 (24000/1001) FPS
    Color space                 : YUV
    Chroma subsampling          : 4:2:0
    Bit depth                   : 8 bits
    Scan type                   : Progressive
    Bits/(Pixel*Frame)          : 0.070
    Stream size                 : 2.22 GiB (81%)
    Writing library             : x264 core 157 r2935 545de2f
    Encoding settings           : cabac=1 / ref=4 / deblock=1:0:0 / analyse=0x3:0x113 / me=hex / subme=8 / psy=1 / psy_rd=1.00:0.00 / mixed_ref=1 / me_range=16 / chroma_me=1 / trellis=2 / 8x8dct=1 / cqm=0 / deadzone=21,11 / fast_pskip=1 / chroma_qp_offset=-2 / threads=24 / lookahead_threads=4 / sliced_threads=0 / nr=0 / decimate=1 / interlaced=0 / bluray_compat=0 / constrained_intra=0 / bframes=3 / b_pyramid=2 / b_adapt=1 / b_bias=0 / direct=3 / weightb=1 / open_gop=0 / weightp=2 / keyint=240 / keyint_min=24 / scenecut=40 / intra_refresh=0 / rc_lookahead=50 / rc=abr / mbtree=1 / bitrate=3500 / ratetol=1.0 / qcomp=0.60 / qpmin=0 / qpmax=69 / qpstep=4 / vbv_maxrate=62500 / vbv_bufsize=78125 / nal_hrd=none / filler=0 / ip_ratio=1.40 / aq=1:1.00
    Default                     : Yes
    Forced                      : No
    Color range                 : Limited
    Color primaries             : BT.709
    Transfer characteristics    : BT.709
    Matrix coefficients         : BT.709

    Audio #1
    ID                          : 2
    Format                      : AC-3
    Format/Info                 : Audio Coding 3
    Commercial name             : Dolby Digital
    Codec ID                    : A_AC3
    Duration                    : 1 h 30 min
    Bit rate mode               : Constant
    Bit rate                    : 192 kb/s
    Channel(s)                  : 2 channels
    Channel layout              : L R
    Sampling rate               : 48.0 kHz
    Frame rate                  : 31.250 FPS (1536 SPF)
    Compression mode            : Lossy
    Stream size                 : 124 MiB (4%)
    Language                    : Spanish
    Service kind                : Complete Main
    Default                     : Yes
    Forced                      : No

    Audio #2
    ID                          : 3
    Format                      : AC-3
    Format/Info                 : Audio Coding 3
    Commercial name             : Dolby Digital
    Codec ID                    : A_AC3
    Duration                    : 1 h 30 min
    Bit rate mode               : Constant
    Bit rate                    : 640 kb/s
    Channel(s)                  : 2 channels
    Channel layout              : L R
    Sampling rate               : 48.0 kHz
    Frame rate                  : 31.250 FPS (1536 SPF)
    Compression mode            : Lossy
    Delay relative to video     : -5 ms
    Stream size                 : 414 MiB (15%)
    Language                    : English
    Service kind                : Complete Main
    Default                     : No
    Forced                      : No

    Text
    ID                          : 4
    Format                      : UTF-8
    Codec ID                    : S_TEXT/UTF8
    Codec ID/Info               : UTF-8 Plain Text
    Duration                    : 1 h 30 min
    Bit rate                    : 69 b/s
    Count of elements           : 1192
    Stream size                 : 45.8 KiB (0%)
    Language                    : Spanish
    Default                     : No
    Forced                      : No

    Menu
    00:00:00.000                : :Capítulo 01
    00:02:43.372                : :Capítulo 02
    00:07:13.350                : :Capítulo 03
    00:09:30.945                : :Capítulo 04
    00:12:55.817                : :Capítulo 05
    00:16:16.142                : :Capítulo 06
    00:20:13.003                : :Capítulo 07
    00:22:47.533                : :Capítulo 08
    00:27:18.887                : :Capítulo 09
    00:31:44.820                : :Capítulo 10
    00:37:23.533                : :Capítulo 11
    00:39:55.977                : :Capítulo 12
    00:45:32.939                : :Capítulo 13
    00:48:39.667                : :Capítulo 14
    00:51:01.225                : :Capítulo 15
    00:53:33.252                : :Capítulo 16
    00:57:21.897                : :Capítulo 17
    00:59:20.849                : :Capítulo 18
    01:02:34.668                : :Capítulo 19
    01:06:19.225                : :Capítulo 20
    01:09:30.958                : :Capítulo 21
    01:12:58.833                : :Capítulo 22
    01:17:40.531                : :Capítulo 23
    01:21:26.799                : :Capítulo 24
    01:25:23.327                : :Capítulo 25
    01:26:52.666                : :Capítulo 26
     

  • Peso: 2.74 GiB

Sinopsis

Los hermanos Bob y Doug Mackenzie ayudarán a la huérfana Pam a intentar recuperar la fábrica de cerveza fundada por su padre, recientemente fallecido.

 

 

Latino: AC3 2.0 BD  –  Ingles: AC3 2.0 BD

Ficha técnica

  • Titulo original: Strange Brew
  • Fecha de lanzamiento: 26-08-1983 (Canada, United States of America)
  • Director: Dave Thomas, Rick Moranis
  • Género: Comedia

Video trailer de la película

Enlaces de descarga

Rip de Bluray

Descargar The Adventures of Bob & Doug McKenzie Strange Brew (1983) HD Latino – CMHDD




Aportes de DPeliculasHDmega la pass es:dpeliculashdmega.org Aportes de CinemaniaHD la pass es:cinemaniahdd.com
Guardado en : Comedia

Películas relacionadas

  • Hombre de familia (2000) REMUX 1080p Latino

    Hombre de familia (2000) REMUX 1080p Latino

    2000
    Hombre de familia (2000) REMUX 1080p Latino

    2h 1m 2000

    Descargar Hombre de familia (2000) REMUX 1080p Latino. Jack Campbell es un egocéntrico broker de Wall...

    Director: Robert Schroer

    Género: Comedia

    Actores: Wass Stevens

  • Te Amo Brother (2009) REMUX 1080p Latino

    Te Amo Brother (2009) REMUX 1080p Latino

    2009
    Te Amo Brother (2009) REMUX 1080p Latino

    1h 45m 2009

    Descargar Te Amo Brother (2009) REMUX 1080p Latino. Peter Klaven (Paul Rudd) es un joven que vive muy...

    Director: Scott Robertson

    Género: Comedia

    Actores: Vicki Davis

  • Asústame (2020) HD 1080p Latino

    Asústame (2020) HD 1080p Latino

    2020
    Asústame (2020) HD 1080p Latino

    1h 44m 2020

    Descargar Asústame (2020) HD 1080p Latino. Durante un corte de energía, dos extraños cuentan historias...

    Director: Josh Ruben

    Género: Comedia

    Actores: Rebecca Drysdale

  • Asústame (2020) PLACEBO Full HD 1080p Latino

    Asústame (2020) PLACEBO Full HD 1080p Latino

    2020
    Asústame (2020) PLACEBO Full HD 1080p Latino

    1h 44m 2020

    Descargar Asústame (2020) PLACEBO Full HD 1080p Latino. Durante un corte de energía, dos extraños...

    Director: Josh Ruben

    Género: Comedia

    Actores: Rebecca Drysdale

  • Asústame (2020) REMUX 1080p Latino

    Asústame (2020) REMUX 1080p Latino

    2020
    Asústame (2020) REMUX 1080p Latino

    1h 44m 2020

    Descargar Asústame (2020) REMUX 1080p Latino. Durante un corte de energía, dos extraños cuentan historias...

    Director: Josh Ruben

    Género: Comedia

    Actores: Rebecca Drysdale

descargar The Adventures of Bob & Doug McKenzie Strange Brew (1983) HD Latino – CMHDD 1080p 1080p gratis, The Adventures of Bob & Doug McKenzie Strange Brew (1983) HD Latino – CMHDD 1080p mega 1 link, The Adventures of Bob & Doug McKenzie Strange Brew (1983) HD Latino – CMHDD 1080p pelicula completa, descargar The Adventures of Bob & Doug McKenzie Strange Brew (1983) HD Latino – CMHDD 1080p gratis en mega.

The Adventures of Bob & Doug McKenzie Strange Brew (1983) HD Latino – CMHDD pelicula full hd, The Adventures of Bob & Doug McKenzie Strange Brew (1983) HD Latino – CMHDD mega latino, The Adventures of Bob & Doug McKenzie Strange Brew (1983) HD Latino – CMHDD 4k latino, The Adventures of Bob & Doug McKenzie Strange Brew (1983) HD Latino – CMHDD pelicula completa, The Adventures of Bob & Doug McKenzie Strange Brew (1983) HD Latino – CMHDD descargar gratis, descargar The Adventures of Bob & Doug McKenzie Strange Brew (1983) HD Latino – CMHDD pelicula latino, The Adventures of Bob & Doug McKenzie Strange Brew (1983) HD Latino – CMHDD 1 link mega, The Adventures of Bob & Doug McKenzie Strange Brew (1983) HD Latino – CMHDD 1 link google drive, The Adventures of Bob & Doug McKenzie Strange Brew (1983) HD Latino – CMHDD hd 1080p latino.
Comentarios 0