×

¿Problemas para descargar con Mozilla, EDGE? Deshabilita la opción "Abrir vinculos en una pestaña nueva" tal como lo muestra ésta imagen.

Los Locos Addams (2019) REMUX 1080p Latino

832 vistas

Información de Los Locos Addams (2019) REMUX 1080p Latino

Datos de la película

  • Calidad: Full 1080p
  • Audio: Se especifica abajo de la Sinopsis
  • Subtitulos: Español Latino PGS - Ingles PGS
  • Resolución: 1920x1080p
  • Formato: MKV
  • Codec: H.264
  • Encoder: CinefiloCool
  • Mediainfo: Clic para Mostrar Datos Ver
  • La familia Addams (2019) REMUX 1080p Latino-CMHDD.mkv
    Format                      : Matroska
    Format version              : Version 4
    File size                   : 22.6 GiB
    Duration                    : 1 h 27 min
    Overall bit rate mode       : Variable
    Overall bit rate            : 37.2 Mb/s
    Movie name                  : CinemaniaHDD.Net
    Encoded date                : UTC 2020-01-13 04:30:05
    Writing application         : mkvmerge v38.0.0 ('The Silent Type') 64-bit
    Writing library             : libebml v1.3.9 + libmatroska v1.5.2
    Attachments                 : CINEMANIAHD.png

    Video
    ID                          : 1
    Format                      : AVC
    Format/Info                 : Advanced Video Codec
    Format profile              : High@L4.1
    Format settings             : CABAC / 2 Ref Frames
    Format settings, CABAC      : Yes
    Format settings, ReFrames   : 2 frames
    Codec ID                    : V_MPEG4/ISO/AVC
    Duration                    : 1 h 27 min
    Bit rate mode               : Variable
    Bit rate                    : 29.3 Mb/s
    Width                       : 1 920 pixels
    Height                      : 1 080 pixels
    Display aspect ratio        : 16:9
    Frame rate mode             : Constant
    Frame rate                  : 23.976 (24000/1001) FPS
    Color space                 : YUV
    Chroma subsampling          : 4:2:0
    Bit depth                   : 8 bits
    Scan type                   : Progressive
    Bits/(Pixel*Frame)          : 0.589
    Stream size                 : 17.8 GiB (79%)
    Title                       : Full HD1080p [REMUX]
    Default                     : Yes
    Forced                      : Yes

    Audio #1
    ID                          : 2
    Format                      : DTS XBR
    Format/Info                 : Digital Theater Systems
    Commercial name             : DTS-HD High Resolution Audio
    Codec ID                    : A_DTS
    Duration                    : 1 h 27 min
    Bit rate mode               : Constant
    Bit rate                    : 2 046 kb/s
    Channel(s)                  : 8 channels
    Channel layout              : C L R LFE Lb Rb Lss Rss
    Sampling rate               : 48.0 kHz
    Frame rate                  : 93.750 FPS (512 SPF)
    Bit depth                   : 24 bits
    Compression mode            : Lossy
    Stream size                 : 1.24 GiB (5%)
    Title                       : DTS-HD_7.1_Bluray_Esp
    Language                    : Spanish
    Default                     : Yes
    Forced                      : Yes

    Audio #2
    ID                          : 3
    Format                      : DTS XLL
    Format/Info                 : Digital Theater Systems
    Commercial name             : DTS-HD Master Audio
    Codec ID                    : A_DTS
    Duration                    : 1 h 27 min
    Bit rate mode               : Variable
    Bit rate                    : 4 319 kb/s
    Channel(s)                  : 8 channels
    Channel layout              : C L R LFE Lb Rb Lss Rss
    Sampling rate               : 48.0 kHz
    Frame rate                  : 93.750 FPS (512 SPF)
    Bit depth                   : 24 bits
    Compression mode            : Lossless
    Stream size                 : 2.63 GiB (12%)
    Title                       : DTS-HD_7.1_Bluray_Eng
    Language                    : English
    Default                     : No
    Forced                      : No

    Audio #3
    ID                          : 4
    Format                      : DTS
    Format/Info                 : Digital Theater Systems
    Codec ID                    : A_DTS
    Duration                    : 1 h 27 min
    Bit rate mode               : Constant
    Bit rate                    : 1 509 kb/s
    Channel(s)                  : 6 channels
    Channel layout              : C L R Ls Rs LFE
    Sampling rate               : 48.0 kHz
    Frame rate                  : 93.750 FPS (512 SPF)
    Bit depth                   : 24 bits
    Compression mode            : Lossy
    Stream size                 : 939 MiB (4%)
    Title                       : DTS_5.1_Bluray_Esp
    Language                    : Spanish
    Default                     : No
    Forced                      : No

    Text #1
    ID                          : 5
    Format                      : PGS
    Muxing mode                 : zlib
    Codec ID                    : S_HDMV/PGS
    Codec ID/Info               : Picture based subtitle format used on BDs/HD-DVDs
    Duration                    : 1 h 25 min
    Bit rate                    : 3 941 b/s
    Count of elements           : 228
    Stream size                 : 2.41 MiB (0%)
    Title                       : Sub_Forzados [PGS]
    Language                    : Spanish
    Default                     : Yes
    Forced                      : Yes

    Text #2
    ID                          : 6
    Format                      : PGS
    Muxing mode                 : zlib
    Codec ID                    : S_HDMV/PGS
    Codec ID/Info               : Picture based subtitle format used on BDs/HD-DVDs
    Duration                    : 1 h 25 min
    Bit rate                    : 44.4 kb/s
    Count of elements           : 2504
    Stream size                 : 27.2 MiB (0%)
    Title                       : Sub_Esp [PGS]
    Language                    : Spanish
    Default                     : No
    Forced                      : No

    Text #3
    ID                          : 7
    Format                      : PGS
    Muxing mode                 : zlib
    Codec ID                    : S_HDMV/PGS
    Codec ID/Info               : Picture based subtitle format used on BDs/HD-DVDs
    Duration                    : 1 h 25 min
    Bit rate                    : 50.6 kb/s
    Count of elements           : 2812
    Stream size                 : 31.1 MiB (0%)
    Title                       : Sub_Eng [PGS]
    Language                    : English
    Default                     : No
    Forced                      : No

    Text #4
    ID                          : 8
    Format                      : UTF-8
    Codec ID                    : S_TEXT/UTF8
    Codec ID/Info               : UTF-8 Plain Text
    Duration                    : 1 h 25 min
    Bit rate                    : 6 b/s
    Count of elements           : 114
    Stream size                 : 3.92 KiB (0%)
    Title                       : Sub_Forzados
    Language                    : Spanish
    Default                     : No
    Forced                      : No

    Text #5
    ID                          : 9
    Format                      : UTF-8
    Codec ID                    : S_TEXT/UTF8
    Codec ID/Info               : UTF-8 Plain Text
    Duration                    : 1 h 25 min
    Bit rate                    : 65 b/s
    Count of elements           : 1249
    Stream size                 : 41.0 KiB (0%)
    Title                       : Sub_Esp
    Language                    : Spanish
    Default                     : No
    Forced                      : No

    Menu
    00:00:00.000                : en:Chapter 01
    00:05:08.558                : en:Chapter 02
    00:10:35.468                : en:Chapter 03
    00:15:46.612                : en:Chapter 04
    00:19:35.257                : en:Chapter 05
    00:25:14.596                : en:Chapter 06
    00:29:25.764                : en:Chapter 07
    00:34:20.475                : en:Chapter 08
    00:39:46.967                : en:Chapter 09
    00:45:01.740                : en:Chapter 10
    00:49:07.319                : en:Chapter 11
    00:53:40.926                : en:Chapter 12
    00:56:36.518                : en:Chapter 13
    01:00:00.763                : en:Chapter 14
    01:03:45.947                : en:Chapter 15
    01:06:02.166                : en:Chapter 16
    01:10:54.583                : en:Chapter 17
    01:18:09.476                : en:Chapter 18
    01:20:21.107                : en:Chapter 19
    01:21:11.449                : en:Chapter 20

  • Peso: 22.6 GiB

Sinopsis

Descargar Los Locos Addams (2019) REMUX 1080p Latino. Gomez y Morticia preparan la visita de su numerosa familia para celebrar la »Mazurka con sable» en honor a Pugsley, un rito de iniciación para convertirse en un hombre digno de la familia Addams. Pero, mientras están inmersos en los preparativos, los Addams ignoran que su vecina, el fenómeno televisivo Margaux Needler, planea construir una comunidad prefabricada y perecta justo debajo de la suya. Y cuando por fin se levanta la niebla, Margaux entra en pánico al descubrir la mansión de la familia Addams, un claro impedimento en su sueño de vender todas las casas del barrio a personas selectas. Por otro lado, mientras Pugsley se esfuerza en aprenderse al pie de la letra la complicada »Mazurka con sable», Miércoles se enfrenta a la adolescencia. Se hace amiga de Parker, la hija de Margaux, e intenta ir más allá de los límites impuestos por Morticia, sacándola de quicio al volverse »normal», ir al instituto, ser animadora y querer vestir cosas que, sin duda, no son propias de un Addams.

Audio Español Latino DTS-HD 7.1 + DTS 5.1 Bluray – Ingles DTS-HD 7.1 Bluray

Ficha técnica

Video trailer de la película

Enlaces de descarga

Rip de Bluray

Descargar Los Locos Addams (2019) REMUX 1080p Latino




Aportes de DPeliculasHDmega la pass es:dpeliculashdmega.org Aportes de CinemaniaHD la pass es:cinemaniahdd.com
Guardado en : Animación , Comedia , Familia , Fantasía , Remux

Películas relacionadas

descargar Los Locos Addams (2019) REMUX 1080p Latino Full 1080p 1080p gratis, Los Locos Addams (2019) REMUX 1080p Latino Full 1080p mega 1 link, Los Locos Addams (2019) REMUX 1080p Latino Full 1080p pelicula completa, descargar Los Locos Addams (2019) REMUX 1080p Latino Full 1080p gratis en mega.

Los Locos Addams (2019) REMUX 1080p Latino pelicula full hd, Los Locos Addams (2019) REMUX 1080p Latino mega latino, Los Locos Addams (2019) REMUX 1080p Latino 4k latino, Los Locos Addams (2019) REMUX 1080p Latino pelicula completa, Los Locos Addams (2019) REMUX 1080p Latino descargar gratis, descargar Los Locos Addams (2019) REMUX 1080p Latino pelicula latino, Los Locos Addams (2019) REMUX 1080p Latino 1 link mega, Los Locos Addams (2019) REMUX 1080p Latino 1 link google drive, Los Locos Addams (2019) REMUX 1080p Latino hd 1080p latino.
Comentarios 0