×

¿Problemas para descargar con Mozilla, EDGE? Deshabilita la opción "Abrir vinculos en una pestaña nueva" tal como lo muestra ésta imagen.

The Abyss (1989) Special Edition (OPEN MATTE) REMUX 1080p Latino – CMHDD

98 vistas

Información de The Abyss (1989) Special Edition (OPEN MATTE) REMUX 1080p Latino – CMHDD

Datos de la película

  • Calidad: Full 1080p
  • Audio: Se especifica abajo de la Sinopsis
  • Subtitulos: Español Latino SRT- FORZADOS SRT
  • Resolución: 19201080p
  • Formato: MKV
  • Codec: H.264
  • Encoder: Dracarys
  • Mediainfo: Clic para Mostrar Datos Ver
  • Format                      : Matroska
    Format version              : Version 4
    File size                   : 29.0 GiB
    Duration                    : 2 h 50 min
    Overall bit rate            : 24.3 Mb/s
    Movie name                  : The Abyss (1989) Special Edition (OPEN MATTE) REMUX 1080p Latino - CMHDD
    Encoded date                : UTC 2023-12-14 22:13:04
    Writing application         : mkvmerge v47.0.0 ('Black Flag') 64-bit
    Writing library             : libebml v1.3.10 + libmatroska v1.5.2

    Video
    ID                          : 1
    Format                      : AVC
    Format/Info                 : Advanced Video Codec
    Format profile              : High@L4.1
    Format settings             : CABAC / 4 Ref Frames
    Format settings, CABAC      : Yes
    Format settings, Reference  : 4 frames
    Codec ID                    : V_MPEG4/ISO/AVC
    Duration                    : 2 h 50 min
    Bit rate                    : 22.4 Mb/s
    Width                       : 1 920 pixels
    Height                      : 1 080 pixels
    Display aspect ratio        : 16:9
    Frame rate mode             : Constant
    Frame rate                  : 23.976 (24000/1001) FPS
    Color space                 : YUV
    Chroma subsampling          : 4:2:0
    Bit depth                   : 8 bits
    Scan type                   : Progressive
    Bits/(Pixel*Frame)          : 0.450
    Stream size                 : 26.7 GiB (92%)
    Writing library             : x264 core 161 r3027+53 2464769 t_mod_New [(8 & 10)-bit@all X86_64]
    Encoding settings           : cabac=1 / ref=4 / deblock=1:-3:-3 / analyse=0x3:0x113 / me=umh / subme=11 / psy=1 / fade_compensate=0.00 / psy_rd=1.10:0.00 / mixed_ref=1 / me_range=32 / chroma_me=1 / trellis=2 / 8x8dct=1 / cqm=0 / deadzone=21,11 / fast_pskip=0 / chroma_qp_offset=-2 / threads=12 / lookahead_threads=2 / sliced_threads=0 / nr=0 / decimate=1 / interlaced=0 / bluray_compat=0 / constrained_intra=0 / fgo=0 / bframes=8 / b_pyramid=2 / b_adapt=2 / b_bias=0 / direct=1 / weightb=1 / open_gop=0 / weightp=2 / keyint=240 / keyint_min=23 / scenecut=40 / intra_refresh=0 / rc_lookahead=40 / rc=crf / mbtree=0 / crf=17.0000 / qcomp=0.60 / qpmin=0:0:0 / qpmax=69:69:69 / qpstep=4 / vbv_maxrate=62500 / vbv_bufsize=78125 / crf_max=0.0 / nal_hrd=none / filler=0 / ip_ratio=1.40 / pb_ratio=1.30 / aq=3:0.80 / aq-sensitivity=10.00 / aq-factor=1.00:1.00:1.00 / aq2=0 / aq3=0
    Default                     : Yes
    Forced                      : No
    Color range                 : Limited
    Color primaries             : BT.709
    Transfer characteristics    : BT.709
    Matrix coefficients         : BT.709

    Audio #1
    ID                          : 2
    Format                      : AC-3
    Format/Info                 : Audio Coding 3
    Commercial name             : Dolby Digital
    Codec ID                    : A_AC3
    Duration                    : 2 h 50 min
    Bit rate mode               : Constant
    Bit rate                    : 384 kb/s
    Channel(s)                  : 6 channels
    Channel layout              : L R C LFE Ls Rs
    Sampling rate               : 48.0 kHz
    Frame rate                  : 31.250 FPS (1536 SPF)
    Compression mode            : Lossy
    Stream size                 : 469 MiB (2%)
    Title                       : Latino-Castellano
    Language                    : Spanish
    Service kind                : Complete Main
    Default                     : Yes
    Forced                      : No

    Audio #2
    ID                          : 3
    Format                      : DTS
    Format/Info                 : Digital Theater Systems
    Codec ID                    : A_DTS
    Duration                    : 2 h 50 min
    Bit rate mode               : Constant
    Bit rate                    : 1 509 kb/s
    Channel(s)                  : 6 channels
    Channel layout              : C L R Ls Rs LFE
    Sampling rate               : 48.0 kHz
    Frame rate                  : 93.750 FPS (512 SPF)
    Bit depth                   : 16 bits
    Compression mode            : Lossy
    Stream size                 : 1.80 GiB (6%)
    Language                    : English
    Default                     : No
    Forced                      : No

    Text #1
    ID                          : 4
    Format                      : UTF-8
    Codec ID                    : S_TEXT/UTF8
    Codec ID/Info               : UTF-8 Plain Text
    Duration                    : 2 h 14 min
    Bit rate                    : 0 b/s
    Frame rate                  : 0.001 FPS
    Count of elements           : 7
    Stream size                 : 154 Bytes (0%)
    Title                       : Forzados
    Language                    : Spanish
    Default                     : Yes
    Forced                      : No

    Text #2
    ID                          : 5
    Format                      : UTF-8
    Codec ID                    : S_TEXT/UTF8
    Codec ID/Info               : UTF-8 Plain Text
    Duration                    : 2 h 42 min
    Bit rate                    : 48 b/s
    Frame rate                  : 0.166 FPS
    Count of elements           : 1625
    Stream size                 : 58.0 KiB (0%)
    Language                    : Spanish
    Default                     : No
    Forced                      : No

     

  • Peso: 29.0 GiB

Sinopsis

Durante una tormenta, una plataforma submarina en ultra mar queda incomunicada de la superficie. Dentro de ella, además del equipo técnico de la propia plataforma, se encuentra un grupo de militares, que deben recuperar unas cabezas explosivas. Todo se complica con la aparición de unos extraños seres que vienen de las profundidades abisales.

 

Latino-Castellano: AC3 5.1  –  Ingles: DTS 5.1

Ficha técnica

Video trailer de la película

Enlaces de descarga

Rip de Bluray

Descargar The Abyss (1989) Special Edition (OPEN MATTE) REMUX 1080p Latino – CMHDD




Aportes de DPeliculasHDmega la pass es:dpeliculashdmega.org Aportes de CinemaniaHD la pass es:cinemaniahdd.com Aportes recientes:cinemaniahdd.net

Películas relacionadas

descargar The Abyss (1989) Special Edition (OPEN MATTE) REMUX 1080p Latino – CMHDD Full 1080p 1080p gratis, The Abyss (1989) Special Edition (OPEN MATTE) REMUX 1080p Latino – CMHDD Full 1080p mega 1 link, The Abyss (1989) Special Edition (OPEN MATTE) REMUX 1080p Latino – CMHDD Full 1080p pelicula completa, descargar The Abyss (1989) Special Edition (OPEN MATTE) REMUX 1080p Latino – CMHDD Full 1080p gratis en mega.

The Abyss (1989) Special Edition (OPEN MATTE) REMUX 1080p Latino – CMHDD pelicula full hd, The Abyss (1989) Special Edition (OPEN MATTE) REMUX 1080p Latino – CMHDD mega latino, The Abyss (1989) Special Edition (OPEN MATTE) REMUX 1080p Latino – CMHDD 4k latino, The Abyss (1989) Special Edition (OPEN MATTE) REMUX 1080p Latino – CMHDD pelicula completa, The Abyss (1989) Special Edition (OPEN MATTE) REMUX 1080p Latino – CMHDD descargar gratis, descargar The Abyss (1989) Special Edition (OPEN MATTE) REMUX 1080p Latino – CMHDD pelicula latino, The Abyss (1989) Special Edition (OPEN MATTE) REMUX 1080p Latino – CMHDD 1 link mega, The Abyss (1989) Special Edition (OPEN MATTE) REMUX 1080p Latino – CMHDD 1 link google drive, The Abyss (1989) Special Edition (OPEN MATTE) REMUX 1080p Latino – CMHDD hd 1080p latino.
Comentarios 0