The ABCs of Death (2012) Full 1080p Subtitulado

625 vistas
1 estrella2 estrellas3 estrellas4 estrellas5 estrellas (1 votos, promedio: 5,00 de 5)
Cargando…

Información de The ABCs of Death (2012) Full 1080p Subtitulado

Datos de la película

  • Calidad: Full 1080p
  • Audio: Ingles DTS 5.1 BLURAY
  • Subtitulos: Español Latino PGS - Ingles PGS
  • Resolución: 1920x1080p
  • Formato: MKV
  • Codec: H.264
  • Encoder: Drscarys
  • Mediainfo: Clic para Mostrar Datos Ver
  • Format                      : Matroska
    Format version              : Version 4
    File size                   : 7.08 GiB
    Duration                    : 2 h 9 min
    Overall bit rate            : 7 830 kb/s
    Movie name                  : CinemaniaHDD.net
    Encoded date                : UTC 2019-02-10 05:09:52
    Writing application         : mkvmerge v30.1.0 ('Forever And More') 64-bit
    Writing library             : libebml v1.3.6 + libmatroska v1.4.9 / Lavf58.20.100

    Video
    ID                          : 1
    Format                      : AVC
    Format/Info                 : Advanced Video Codec
    Format profile              : [email protected]
    Format settings             : CABAC / 4 Ref Frames
    Format settings, CABAC      : Yes
    Format settings, ReFrames   : 4 frames
    Codec ID                    : V_MPEG4/ISO/AVC
    Duration                    : 2 h 9 min
    Bit rate                    : 6 314 kb/s
    Width                       : 1 920 pixels
    Height                      : 1 080 pixels
    Display aspect ratio        : 16:9
    Frame rate mode             : Constant
    Frame rate                  : 23.976 FPS
    Color space                 : YUV
    Chroma subsampling          : 4:2:0
    Bit depth                   : 8 bits
    Scan type                   : Progressive
    Bits/(Pixel*Frame)          : 0.127
    Stream size                 : 5.71 GiB (81%)
    Writing library             : x264 core 157 r2935 545de2f
    Encoding settings           : cabac=1 / ref=4 / deblock=1:0:0 / analyse=0x1:0x131 / me=esa / subme=10 / psy=1 / psy_rd=1.00:0.00 / mixed_ref=1 / me_range=24 / chroma_me=1 / trellis=2 / 8x8dct=0 / cqm=0 / deadzone=21,11 / fast_pskip=1 / chroma_qp_offset=-2 / threads=34 / lookahead_threads=5 / sliced_threads=0 / nr=0 / decimate=1 / interlaced=0 / bluray_compat=0 / constrained_intra=0 / bframes=8 / b_pyramid=2 / b_adapt=2 / b_bias=0 / direct=3 / weightb=1 / open_gop=0 / weightp=2 / keyint=240 / keyint_min=24 / scenecut=40 / intra_refresh=0 / rc_lookahead=60 / rc=crf / mbtree=1 / crf=20.0 / qcomp=0.60 / qpmin=0 / qpmax=69 / qpstep=4 / vbv_maxrate=20000 / vbv_bufsize=25000 / crf_max=0.0 / nal_hrd=none / filler=0 / ip_ratio=1.40 / aq=1:1.00
    Language                    : English
    Default                     : Yes
    Forced                      : No
    Color range                 : Limited
    Color primaries             : BT.709
    Transfer characteristics    : BT.709
    Matrix coefficients         : BT.709

    Audio
    ID                          : 2
    Format                      : DTS
    Format/Info                 : Digital Theater Systems
    Codec ID                    : A_DTS
    Duration                    : 2 h 9 min
    Bit rate mode               : Constant
    Bit rate                    : 1 509 kb/s
    Channel(s)                  : 6 channels
    Channel layout              : C L R Ls Rs LFE
    Sampling rate               : 48.0 kHz
    Frame rate                  : 93.750 FPS (512 SPF)
    Bit depth                   : 24 bits
    Compression mode            : Lossy
    Stream size                 : 1.36 GiB (19%)
    Language                    : English
    Default                     : Yes
    Forced                      : No

    Text #1
    ID                          : 3
    Format                      : PGS
    Muxing mode                 : zlib
    Codec ID                    : S_HDMV/PGS
    Codec ID/Info               : Picture based subtitle format used on BDs/HD-DVDs
    Duration                    : 2 h 2 min
    Bit rate                    : 6 375 b/s
    Count of elements           : 494
    Stream size                 : 5.61 MiB (0%)
    Language                    : English
    Default                     : No
    Forced                      : No

    Text #2
    ID                          : 4
    Format                      : PGS
    Muxing mode                 : zlib
    Codec ID                    : S_HDMV/PGS
    Codec ID/Info               : Picture based subtitle format used on BDs/HD-DVDs
    Duration                    : 2 h 9 min
    Bit rate                    : 13.9 kb/s
    Count of elements           : 1024
    Stream size                 : 12.9 MiB (0%)
    Language                    : Spanish
    Default                     : Yes
    Forced                      : Yes

    Menu
    00:00:00.000                : :Chapter 1
    00:06:33.518                : :Chapter 2
    00:11:36.529                : :Chapter 3
    00:16:43.586                : :Chapter 4
    00:22:36.146                : :Chapter 5
    00:26:30.881                : :Chapter 6
    00:30:58.190                : :Chapter 7
    00:34:01.998                : :Chapter 8
    00:38:16.795                : :Chapter 9
    00:42:26.669                : :Chapter 10
    00:46:11.686                : :Chapter 11
    00:49:40.186                : :Chapter 12
    00:56:24.047                : :Chapter 13
    00:58:04.147                : :Chapter 14
    01:00:57.696                : :Chapter 15
    01:04:32.702                : :Chapter 16
    01:09:58.444                : :Chapter 17
    01:14:29.215                : :Chapter 18
    01:20:29.199                : :Chapter 19
    01:24:31.316                : :Chapter 20
    01:28:19.211                : :Chapter 21
    01:31:54.342                : :Chapter 22
    01:37:58.623                : :Chapter 23
    01:41:54.692                : :Chapter 24
    01:48:22.830                : :Chapter 25
    01:52:40.254                : :Chapter 26
    01:58:19.801                : :Chapter 27

  • Peso: 7.08 GiB

Sinopsis

26 letras. 26 directores. 26 maneras de morir. La idea no puede ser más simple: a cada cineasta se la adjudica una letra, y se le da total libertad para crear un cortometraje en el que la muerte juegue un papel destacado. De esta manera, se construye una antología de cadáveres exquisitos que supone, sin ninguna duda, uno de los proyectos más ambiciosos que el género ha conocido en toda su historia cinematográfica (no en vano, la producción ha atravesado quince países diferentes). El objetivo: ofrecer una panorámica ora divertida, ora siniestra, que sirva para definir todo aquello que le ha ocurrido al terror en los últimos diez años.

Ficha técnica

Video trailer de la película

Enlaces de descarga

Rip de Bluray

Descargar The ABCs of Death (2012) Full 1080p Subtitulado




Aportes de DPeliculasHDmega la pass es:dpeliculashdmega.org Aportes de CinemaniaHD la pass es:cinemaniahdd.com
Guardado en : FULL 1080p Plateadas , Terror

Películas relacionadas

  • The Front Runner (2018) Full 1080p Latino

    2018
    The Front Runner (2018) Full 1080p Latino

    0.0 1h 53m 2018

    Narra la campaña presidencial del senador estadounidense Gary Hart, que tuvo lugar en 1988, momento...

    Director: Jason Reitman

    Género: Drama

    Actores: William Walker

  • Robin Hood orígenes (2018) Full 1080p Latino

    2018
    Robin Hood orígenes (2018) Full 1080p Latino

    0.0 1h 56m 2018

    Cuando el joven Robin Hood (Taron Egerton) regresa a su hogar, endurecido, tras luchar como guerrero...

    Director: Otto Bathurst

    Género: Acción

    Actores: Yasen Atour

  • Overlord (2018) Full HD 1080p Latino

    2018
    Overlord (2018) Full HD 1080p Latino

    0.0 1h 50m 2018

    Segunda Guerra Mundial. En la víspera del Día D, dos paracaidistas estadounidenses tienen una misión...

    Director: Julius Avery

    Género: Acción

    Actores: Wyatt Russell

  • Megalodón (2018) 4K UHD HDR Latino

    2018
    Megalodón (2018) 4K UHD HDR Latino

    4.5 1h 53m 2018

    Descargar Megalodón (2018) 4K UHD HDR Latino, Mega, Google Drive. Un sumergible de aguas profundas que...

    Director: Monique Knight

    Género: 4K HDR

    Actores: Yoson An

Comentarios 0