×

¿Problemas para descargar con Mozilla, EDGE? Deshabilita la opción "Abrir vinculos en una pestaña nueva" tal como lo muestra ésta imagen.

The ABCs of Death 2 (2014) Full 1080p Subtitulado

1.340 vistas

Información de The ABCs of Death 2 (2014) Full 1080p Subtitulado

the abcs of death 2 49555 poster

Datos de la película

  • Calidad: Full 1080p
  • Audio: Ingles DTS 5.1 BLURAY
  • Subtitulos: Español Latino PGS - Ingles PGS
  • Resolución: 1920x1080p
  • Formato: MKV
  • Codec: H.264
  • Encoder: Dracarys
  • Mediainfo: Clic para Mostrar Datos Ver
  • Format                      : Matroska
    Format version              : Version 4
    File size                   : 8.25 GiB
    Duration                    : 2 h 2 min
    Overall bit rate            : 9 662 kb/s
    Movie name                  : CinemaniaHDD.net
    Encoded date                : UTC 2019-02-10 05:12:23
    Writing application         : mkvmerge v30.1.0 ('Forever And More') 64-bit
    Writing library             : libebml v1.3.6 + libmatroska v1.4.9 / Lavf58.20.100

    Video
    ID                          : 1
    Format                      : AVC
    Format/Info                 : Advanced Video Codec
    Format profile              : Main@L4
    Format settings             : CABAC / 4 Ref Frames
    Format settings, CABAC      : Yes
    Format settings, ReFrames   : 4 frames
    Codec ID                    : V_MPEG4/ISO/AVC
    Duration                    : 2 h 2 min
    Bit rate                    : 8 129 kb/s
    Width                       : 1 920 pixels
    Height                      : 1 080 pixels
    Display aspect ratio        : 16:9
    Frame rate mode             : Constant
    Frame rate                  : 23.976 (24000/1001) FPS
    Color space                 : YUV
    Chroma subsampling          : 4:2:0
    Bit depth                   : 8 bits
    Scan type                   : Progressive
    Bits/(Pixel*Frame)          : 0.164
    Stream size                 : 6.95 GiB (84%)
    Writing library             : x264 core 157 r2935 545de2f
    Encoding settings           : cabac=1 / ref=4 / deblock=1:0:0 / analyse=0x1:0x131 / me=esa / subme=10 / psy=1 / psy_rd=1.00:0.00 / mixed_ref=1 / me_range=24 / chroma_me=1 / trellis=2 / 8x8dct=0 / cqm=0 / deadzone=21,11 / fast_pskip=1 / chroma_qp_offset=-2 / threads=34 / lookahead_threads=5 / sliced_threads=0 / nr=0 / decimate=1 / interlaced=0 / bluray_compat=0 / constrained_intra=0 / bframes=8 / b_pyramid=2 / b_adapt=2 / b_bias=0 / direct=3 / weightb=1 / open_gop=0 / weightp=2 / keyint=240 / keyint_min=24 / scenecut=40 / intra_refresh=0 / rc_lookahead=60 / rc=crf / mbtree=1 / crf=20.0 / qcomp=0.60 / qpmin=0 / qpmax=69 / qpstep=4 / vbv_maxrate=20000 / vbv_bufsize=25000 / crf_max=0.0 / nal_hrd=none / filler=0 / ip_ratio=1.40 / aq=1:1.00
    Language                    : English
    Default                     : Yes
    Forced                      : No
    Color range                 : Limited
    Color primaries             : BT.709
    Transfer characteristics    : BT.709
    Matrix coefficients         : BT.709

    Audio
    ID                          : 2
    Format                      : DTS
    Format/Info                 : Digital Theater Systems
    Codec ID                    : A_DTS
    Duration                    : 2 h 2 min
    Bit rate mode               : Constant
    Bit rate                    : 1 509 kb/s
    Channel(s)                  : 6 channels
    Channel layout              : C L R Ls Rs LFE
    Sampling rate               : 48.0 kHz
    Frame rate                  : 93.750 FPS (512 SPF)
    Bit depth                   : 24 bits
    Compression mode            : Lossy
    Stream size                 : 1.29 GiB (16%)
    Language                    : English
    Default                     : Yes
    Forced                      : No

    Text #1
    ID                          : 3
    Format                      : PGS
    Muxing mode                 : zlib
    Codec ID                    : S_HDMV/PGS
    Codec ID/Info               : Picture based subtitle format used on BDs/HD-DVDs
    Duration                    : 1 h 17 min
    Bit rate                    : 13.4 kb/s
    Count of elements           : 506
    Stream size                 : 7.47 MiB (0%)
    Language                    : English
    Default                     : No
    Forced                      : No

    Text #2
    ID                          : 4
    Format                      : PGS
    Muxing mode                 : zlib
    Codec ID                    : S_HDMV/PGS
    Codec ID/Info               : Picture based subtitle format used on BDs/HD-DVDs
    Duration                    : 2 h 1 min
    Bit rate                    : 37.4 kb/s
    Count of elements           : 2028
    Stream size                 : 32.7 MiB (0%)
    Language                    : Spanish
    Default                     : Yes
    Forced                      : Yes

    Menu
    00:00:00.000                : :Chapter 1
    00:07:07.177                : :Chapter 2
    00:11:21.514                : :Chapter 3
    00:15:13.121                : :Chapter 4
    00:19:45.059                : :Chapter 5
    00:23:44.214                : :Chapter 6
    00:29:43.323                : :Chapter 7
    00:33:46.608                : :Chapter 8
    00:35:52.692                : :Chapter 9
    00:38:54.958                : :Chapter 10
    00:44:37.508                : :Chapter 11
    00:48:42.294                : :Chapter 12
    00:52:06.457                : :Chapter 13
    00:54:37.107                : :Chapter 14
    00:58:35.637                : :Chapter 15
    01:03:23.717                : :Chapter 16
    01:07:48.273                : :Chapter 17
    01:10:55.626                : :Chapter 18
    01:15:31.318                : :Chapter 19
    01:20:52.806                : :Chapter 20
    01:23:45.938                : :Chapter 21
    01:26:47.911                : :Chapter 22
    01:31:51.172                : :Chapter 23
    01:35:29.766                : :Chapter 24
    01:38:40.832                : :Chapter 25
    01:43:34.041                : :Chapter 26
    01:50:33.460                : :Chapter 27

  • Peso: 8.25 GiB

Sinopsis

Secuela de la antología de cortometrajes de terror realizados por 26 directores diferentes. Es bien sabido que la letra con sangre entra. Los responsables de ABC’s of Death son bien conscientes de ello y por eso nos obligan a repetir curso. Las 26 letras del abecedario son emparejadas de nuevo con los nombres más punteros del fantástico internacional, desde veteranos como Bill Plympton y Vincenzo Natali hasta promesas como las hermanas Jen y Sylvia Soska. Esto da lugar a una serie de cápsulas sanguinarias con un elemento en común: la muerte.

Ficha técnica

Video trailer de la película

Enlaces de descarga

Rip de Bluray

Descargar The ABCs of Death 2 (2014) Full 1080p Subtitulado




Aportes de DPeliculasHDmega la pass es:dpeliculashdmega.org Aportes de CinemaniaHD la pass es:cinemaniahdd.com
Guardado en : FULL 1080p Plateadas , Terror

Películas relacionadas

descargar The ABCs of Death 2 (2014) Full 1080p Subtitulado Full 1080p 1080p gratis, The ABCs of Death 2 (2014) Full 1080p Subtitulado Full 1080p mega 1 link, The ABCs of Death 2 (2014) Full 1080p Subtitulado Full 1080p pelicula completa, descargar The ABCs of Death 2 (2014) Full 1080p Subtitulado Full 1080p gratis en mega.

The ABCs of Death 2 (2014) Full 1080p Subtitulado pelicula full hd, The ABCs of Death 2 (2014) Full 1080p Subtitulado mega latino, The ABCs of Death 2 (2014) Full 1080p Subtitulado 4k latino, The ABCs of Death 2 (2014) Full 1080p Subtitulado pelicula completa, The ABCs of Death 2 (2014) Full 1080p Subtitulado descargar gratis, descargar The ABCs of Death 2 (2014) Full 1080p Subtitulado pelicula latino, The ABCs of Death 2 (2014) Full 1080p Subtitulado 1 link mega, The ABCs of Death 2 (2014) Full 1080p Subtitulado 1 link google drive, The ABCs of Death 2 (2014) Full 1080p Subtitulado hd 1080p latino.
Comentarios 1
  • carlos - 17 febrero, 2019

    no la tendran en audio dual