×

¿Problemas para descargar con Mozilla, EDGE? Deshabilita la opción "Abrir vinculos en una pestaña nueva" tal como lo muestra ésta imagen.

The A-Team (2010) [EXTENDED] HD 1080p Latino – CMHDD

386 vistas

Información de The A-Team (2010) [EXTENDED] HD 1080p Latino – CMHDD

Datos de la película

  • Calidad: 1080p
  • Audio: Español Latino AC3 5.1 BLURAY - Ingles AC3 5.1 BLURAY
  • Subtitulos: Español Latino SRT- FORZADOS SRT
  • Resolución: 1920x816p
  • Formato: MKV
  • Codec: H.264
  • Encoder: Dracarys
  • Mediainfo: Clic para Mostrar Datos Ver
  • Format                      : Matroska
    Format version              : Version 4
    File size                   : 4.24 GiB
    Duration                    : 2 h 13 min
    Overall bit rate            : 4 546 kb/s
    Movie name                  : The A-Team (2010) [EXTENDED] HD 1080p Latino - CMHDD
    Encoded date                : UTC 2020-07-29 00:08:15
    Writing application         : mkvmerge v46.0.0 ('No Deeper Escape') 64-bit
    Writing library             : libebml v1.3.10 + libmatroska v1.5.2

    Video
    ID                          : 1
    Format                      : AVC
    Format/Info                 : Advanced Video Codec
    Format profile              : High@L4.1
    Format settings             : CABAC / 5 Ref Frames
    Format settings, CABAC      : Yes
    Format settings, Reference  : 5 frames
    Codec ID                    : V_MPEG4/ISO/AVC
    Duration                    : 2 h 13 min
    Bit rate                    : 3 500 kb/s
    Width                       : 1 920 pixels
    Height                      : 816 pixels
    Display aspect ratio        : 2.35:1
    Frame rate mode             : Constant
    Frame rate                  : 23.976 (24000/1001) FPS
    Color space                 : YUV
    Chroma subsampling          : 4:2:0
    Bit depth                   : 8 bits
    Scan type                   : Progressive
    Bits/(Pixel*Frame)          : 0.093
    Stream size                 : 3.22 GiB (76%)
    Writing library             : x264 core 157 r2935 545de2f
    Encoding settings           : cabac=1 / ref=5 / deblock=1:0:0 / analyse=0x3:0x113 / me=hex / subme=8 / psy=1 / psy_rd=1.00:0.00 / mixed_ref=1 / me_range=16 / chroma_me=1 / trellis=2 / 8x8dct=1 / cqm=0 / deadzone=21,11 / fast_pskip=1 / chroma_qp_offset=-2 / threads=24 / lookahead_threads=4 / sliced_threads=0 / nr=0 / decimate=1 / interlaced=0 / bluray_compat=0 / constrained_intra=0 / bframes=3 / b_pyramid=2 / b_adapt=1 / b_bias=0 / direct=3 / weightb=1 / open_gop=0 / weightp=2 / keyint=240 / keyint_min=24 / scenecut=40 / intra_refresh=0 / rc_lookahead=50 / rc=abr / mbtree=1 / bitrate=3500 / ratetol=1.0 / qcomp=0.60 / qpmin=0 / qpmax=69 / qpstep=4 / vbv_maxrate=62500 / vbv_bufsize=78125 / nal_hrd=none / filler=0 / ip_ratio=1.40 / aq=1:1.00
    Default                     : Yes
    Forced                      : No
    Color range                 : Limited
    Color primaries             : BT.709
    Transfer characteristics    : BT.709
    Matrix coefficients         : BT.709

    Audio #1
    ID                          : 2
    Format                      : AC-3
    Format/Info                 : Audio Coding 3
    Commercial name             : Dolby Digital
    Codec ID                    : A_AC3
    Duration                    : 2 h 13 min
    Bit rate mode               : Constant
    Bit rate                    : 448 kb/s
    Channel(s)                  : 6 channels
    Channel layout              : L R C LFE Ls Rs
    Sampling rate               : 48.0 kHz
    Frame rate                  : 31.250 FPS (1536 SPF)
    Compression mode            : Lossy
    Delay relative to video     : -5 ms
    Stream size                 : 428 MiB (10%)
    Language                    : Spanish
    Service kind                : Complete Main
    Default                     : Yes
    Forced                      : No

    Audio #2
    ID                          : 3
    Format                      : AC-3
    Format/Info                 : Audio Coding 3
    Commercial name             : Dolby Digital
    Codec ID                    : A_AC3
    Duration                    : 2 h 13 min
    Bit rate mode               : Constant
    Bit rate                    : 640 kb/s
    Channel(s)                  : 6 channels
    Channel layout              : L R C LFE Ls Rs
    Sampling rate               : 48.0 kHz
    Frame rate                  : 31.250 FPS (1536 SPF)
    Compression mode            : Lossy
    Delay relative to video     : -5 ms
    Stream size                 : 611 MiB (14%)
    Language                    : English
    Service kind                : Complete Main
    Default                     : No
    Forced                      : No

    Text #1
    ID                          : 4
    Format                      : UTF-8
    Codec ID                    : S_TEXT/UTF8
    Codec ID/Info               : UTF-8 Plain Text
    Duration                    : 1 h 59 min
    Bit rate                    : 0 b/s
    Count of elements           : 9
    Stream size                 : 258 Bytes (0%)
    Title                       : Forzados
    Language                    : Spanish
    Default                     : Yes
    Forced                      : No

    Text #2
    ID                          : 5
    Format                      : UTF-8
    Codec ID                    : S_TEXT/UTF8
    Codec ID/Info               : UTF-8 Plain Text
    Duration                    : 2 h 12 min
    Bit rate                    : 68 b/s
    Count of elements           : 1988
    Stream size                 : 66.8 KiB (0%)
    Language                    : Spanish
    Default                     : No
    Forced                      : No

    Menu
    00:00:00.000                : :Gringo in Mexico
    00:05:17.484                : :All Tyred Up
    00:13:31.269                : :Mad Dog
    00:21:10.811                : :80 Missions Later
    00:26:32.341                : :Frat Boys with Trigger Fingers
    00:37:42.886                : :The Plan
    00:45:23.638                : :Plan Blows Apart
    00:49:30.259                : :6 Months of Prison
    00:56:53.869                : :Jamming the Signal
    01:02:40.632                : :Movie Time
    01:09:43.054                : :Tank Turbulence
    01:15:19.640                : :Which Way to Berlin?
    01:23:06.398                : :The Transaction
    01:28:54.579                : :I Trust You
    01:35:56.918                : :Exactly Like Call of Duty
    01:38:35.952                : :Give Me 20 Minutes
    01:43:12.603                : :Ba the Banana
    01:49:42.826                : :Showtime
    01:57:19.574                : :Looking All Over for You
    02:07:00.738                : :End Credits

  • Peso: 4.24 GiB

Sinopsis

«Me encanta que los planes salgan bien» es la frase identificativa del Coronel Hannibal Smith, el líder de «El Equipo A», una unidad especial de veteranos de la guerra de Iraq, antiguos soldados de las Fuerzas Especiales que fueron acusados de un crimen que no cometieron. Ellos son Hannibal, un experto planificador de misiones ingeniosas que requieren una reacción en una fracción de segundo, habilidades especiales y un equipo de soldados competentes… y excéntricos; Templenton ‘Fénix’ Peck quien puede conseguir cualquier cosa para las actividades poco ortodoxas y audaces del Equipo; M.A. Barracus, el conductor y músculo del Equipo; y Murdock, un pilo excepcional y loco acreditado. La Capitana Charisa es un antiguo ligue de Fénix que ahora persigue a El Equipo A por un crimen que no cometieron y Lynch es un misterioso agente de la CIA que juega un papel importante en la misión más explosiva del Equipo.

Ficha técnica

Video trailer de la película

Enlaces de descarga

Rip de Bluray

Descargar The A-Team (2010) [EXTENDED] HD 1080p Latino – CMHDD




Aportes de DPeliculasHDmega la pass es:dpeliculashdmega.org Aportes de CinemaniaHD la pass es:cinemaniahdd.com
Guardado en : Acción , Aventura , Comedia , Crimen , HD 1080p , Suspenso

Películas relacionadas

descargar The A-Team (2010) [EXTENDED] HD 1080p Latino – CMHDD 1080p 1080p gratis, The A-Team (2010) [EXTENDED] HD 1080p Latino – CMHDD 1080p mega 1 link, The A-Team (2010) [EXTENDED] HD 1080p Latino – CMHDD 1080p pelicula completa, descargar The A-Team (2010) [EXTENDED] HD 1080p Latino – CMHDD 1080p gratis en mega.

The A-Team (2010) [EXTENDED] HD 1080p Latino – CMHDD pelicula full hd, The A-Team (2010) [EXTENDED] HD 1080p Latino – CMHDD mega latino, The A-Team (2010) [EXTENDED] HD 1080p Latino – CMHDD 4k latino, The A-Team (2010) [EXTENDED] HD 1080p Latino – CMHDD pelicula completa, The A-Team (2010) [EXTENDED] HD 1080p Latino – CMHDD descargar gratis, descargar The A-Team (2010) [EXTENDED] HD 1080p Latino – CMHDD pelicula latino, The A-Team (2010) [EXTENDED] HD 1080p Latino – CMHDD 1 link mega, The A-Team (2010) [EXTENDED] HD 1080p Latino – CMHDD 1 link google drive, The A-Team (2010) [EXTENDED] HD 1080p Latino – CMHDD hd 1080p latino.
Comentarios 0