×

¿Problemas para descargar con Mozilla, EDGE? Deshabilita la opción "Abrir vinculos en una pestaña nueva" tal como lo muestra ésta imagen.

The 40 Year Old Virgin (2005) REMUX 1080p Latino – CMHDD

50 vistas

Información de The 40 Year Old Virgin (2005) REMUX 1080p Latino – CMHDD

Datos de la película

  • Calidad: Full 1080p
  • Audio: Español Latino AC3 5.1 DVD - Ingles AC3 5.1 BLURAY
  • Subtitulos: Español Latino SRT
  • Resolución: 19201080p
  • Formato: MKV
  • Codec: H.264
  • Encoder: Dracarys
  • Mediainfo: Clic para Mostrar Datos Ver
  • Format                      : Matroska
    Format version              : Version 4
    File size                   : 22.4 GiB
    Duration                    : 2 h 12 min
    Overall bit rate            : 24.2 Mb/s
    Movie name                  : The 40 Year Old Virgin (2005) REMUX 1080p Latino - CMHDD
    Encoded date                : UTC 2023-12-10 13:26:44
    Writing application         : mkvmerge v47.0.0 ('Black Flag') 64-bit
    Writing library             : libebml v1.3.10 + libmatroska v1.5.2

    Video
    ID                          : 1
    Format                      : AVC
    Format/Info                 : Advanced Video Codec
    Format profile              : High@L4.1
    Format settings             : CABAC / 4 Ref Frames
    Format settings, CABAC      : Yes
    Format settings, Reference  : 4 frames
    Codec ID                    : V_MPEG4/ISO/AVC
    Duration                    : 2 h 12 min
    Bit rate                    : 23.2 Mb/s
    Width                       : 1 920 pixels
    Height                      : 1 040 pixels
    Display aspect ratio        : 1.85:1
    Frame rate mode             : Constant
    Frame rate                  : 23.976 (24000/1001) FPS
    Color space                 : YUV
    Chroma subsampling          : 4:2:0
    Bit depth                   : 8 bits
    Scan type                   : Progressive
    Bits/(Pixel*Frame)          : 0.485
    Stream size                 : 21.4 GiB (96%)
    Writing library             : x264 core 164 r3100 ed0f7a6
    Encoding settings           : cabac=1 / ref=2 / deblock=1:0:0 / analyse=0x3:0x113 / me=hex / subme=6 / psy=1 / psy_rd=1.00:0.00 / mixed_ref=1 / me_range=16 / chroma_me=1 / trellis=1 / 8x8dct=1 / cqm=0 / deadzone=21,11 / fast_pskip=1 / chroma_qp_offset=-2 / threads=24 / lookahead_threads=4 / sliced_threads=0 / nr=0 / decimate=1 / interlaced=0 / bluray_compat=0 / constrained_intra=0 / bframes=3 / b_pyramid=2 / b_adapt=1 / b_bias=0 / direct=1 / weightb=1 / open_gop=0 / weightp=1 / keyint=240 / keyint_min=24 / scenecut=40 / intra_refresh=0 / rc_lookahead=30 / rc=abr / mbtree=1 / bitrate=23220 / ratetol=1.0 / qcomp=0.60 / qpmin=0 / qpmax=69 / qpstep=4 / ip_ratio=1.40 / aq=1:1.00
    Default                     : Yes
    Forced                      : No
    Color range                 : Limited
    Color primaries             : BT.709
    Transfer characteristics    : BT.709
    Matrix coefficients         : BT.709

    Audio #1
    ID                          : 2
    Format                      : AC-3
    Format/Info                 : Audio Coding 3
    Commercial name             : Dolby Digital
    Codec ID                    : A_AC3
    Duration                    : 2 h 12 min
    Bit rate mode               : Constant
    Bit rate                    : 384 kb/s
    Channel(s)                  : 6 channels
    Channel layout              : L R C LFE Ls Rs
    Sampling rate               : 48.0 kHz
    Frame rate                  : 31.250 FPS (1536 SPF)
    Compression mode            : Lossy
    Delay relative to video     : 1 s 0 ms
    Stream size                 : 364 MiB (2%)
    Language                    : Spanish
    Service kind                : Complete Main
    Default                     : Yes
    Forced                      : No

    Audio #2
    ID                          : 3
    Format                      : AC-3
    Format/Info                 : Audio Coding 3
    Commercial name             : Dolby Digital
    Codec ID                    : A_AC3
    Duration                    : 2 h 12 min
    Bit rate mode               : Constant
    Bit rate                    : 640 kb/s
    Channel(s)                  : 6 channels
    Channel layout              : L R C LFE Ls Rs
    Sampling rate               : 48.0 kHz
    Frame rate                  : 31.250 FPS (1536 SPF)
    Compression mode            : Lossy
    Stream size                 : 606 MiB (3%)
    Language                    : English
    Service kind                : Complete Main
    Default                     : No
    Forced                      : No

    Text #1
    ID                          : 4
    Format                      : UTF-8
    Codec ID                    : S_TEXT/UTF8
    Codec ID/Info               : UTF-8 Plain Text
    Duration                    : 2 h 7 min
    Bit rate                    : 89 b/s
    Frame rate                  : 0.330 FPS
    Count of elements           : 2533
    Stream size                 : 84.0 KiB (0%)
    Language                    : Spanish
    Default                     : No
    Forced                      : No

    Text #2
    ID                          : 5
    Format                      : PGS
    Muxing mode                 : zlib
    Codec ID                    : S_HDMV/PGS
    Codec ID/Info               : Picture based subtitle format used on BDs/HD-DVDs
    Duration                    : 2 h 10 min
    Bit rate                    : 52.5 kb/s
    Frame rate                  : 0.647 FPS
    Count of elements           : 5068
    Stream size                 : 49.0 MiB (0%)
    Language                    : Spanish
    Default                     : No
    Forced                      : No

    Menu
    00:00:01.000                : en:Chapter 1
    00:08:44.148                : en:Chapter 2
    00:14:33.955                : en:Chapter 3
    00:22:53.705                : en:Chapter 4
    00:32:08.843                : en:Chapter 5
    00:38:18.128                : en:Chapter 6
    00:43:58.176                : en:Chapter 7
    00:48:41.595                : en:Chapter 8
    00:54:45.458                : en:Chapter 9
    01:05:01.073                : en:Chapter 10
    01:10:45.209                : en:Chapter 11
    01:17:19.610                : en:Chapter 12
    01:21:28.192                : en:Chapter 13
    01:27:55.638                : en:Chapter 14
    01:35:02.878                : en:Chapter 15
    01:41:57.787                : en:Chapter 16
    01:48:06.739                : en:Chapter 17
    01:59:00.183                : en:Chapter 18
    02:03:47.935                : en:Chapter 19
    02:08:56.160                : en:Chapter 20

     

  • Peso: 22.4 GiB

Sinopsis

Andy Stitzer, de 40 años, ha hecho pocas cosas en su vida. Tiene un trabajo mediocre sellando facturas en una tienda de electrodomésticos, un lindo apartamento con una colección de cómics, buenos amigos… Pero hay una cosa que aun no ha conseguido, y que la mayoría a su edad sí. Andy nunca ha tenido relaciones sexuales.

Ficha técnica

Video trailer de la película

Enlaces de descarga

Rip de Bluray

Descargar The 40 Year Old Virgin (2005) REMUX 1080p Latino – CMHDD




Aportes de DPeliculasHDmega la pass es:dpeliculashdmega.org Aportes de CinemaniaHD la pass es:cinemaniahdd.com Aportes recientes:cinemaniahdd.net
Guardado en : Comedia , Romance

Películas relacionadas

  • Players (2024) NF WEB-DL 1080p Latino

    Players (2024) NF WEB-DL 1080p Latino

    2024
    Players (2024) NF WEB-DL 1080p Latino

    1h 45m 2024

    Descargar Players (2024) NF WEB-DL 1080p Latino. Una periodista deportiva neoyorquina con un ingenioso...

    Director: Trish Sie

    Género: Comedia

    Actores: Veraalba Santa

  • ¡Patos! (2023) HD 1080p Latino

    ¡Patos! (2023) HD 1080p Latino

    2023
    ¡Patos! (2023) HD 1080p Latino

    1h 23m 2023

    Descargar ¡Patos! (2023) HD 1080p Latino. Después de que una familia de patos migratorios aterriza...

    Director: Guy-Laurent Homsy

    Género: Acción

    Actores: Zeno Robinson

  • ¡Patos! (2023) PLACEBO Full HD 1080p Latino

    ¡Patos! (2023) PLACEBO Full HD 1080p Latino

    2023
    ¡Patos! (2023) PLACEBO Full HD 1080p Latino

    1h 23m 2023

    Descargar ¡Patos! (2023) PLACEBO Full HD 1080p Latino. Después de que una familia de patos migratorios...

    Director: Guy-Laurent Homsy

    Género: Acción

    Actores: Zeno Robinson

descargar The 40 Year Old Virgin (2005) REMUX 1080p Latino – CMHDD Full 1080p 1080p gratis, The 40 Year Old Virgin (2005) REMUX 1080p Latino – CMHDD Full 1080p mega 1 link, The 40 Year Old Virgin (2005) REMUX 1080p Latino – CMHDD Full 1080p pelicula completa, descargar The 40 Year Old Virgin (2005) REMUX 1080p Latino – CMHDD Full 1080p gratis en mega.

The 40 Year Old Virgin (2005) REMUX 1080p Latino – CMHDD pelicula full hd, The 40 Year Old Virgin (2005) REMUX 1080p Latino – CMHDD mega latino, The 40 Year Old Virgin (2005) REMUX 1080p Latino – CMHDD 4k latino, The 40 Year Old Virgin (2005) REMUX 1080p Latino – CMHDD pelicula completa, The 40 Year Old Virgin (2005) REMUX 1080p Latino – CMHDD descargar gratis, descargar The 40 Year Old Virgin (2005) REMUX 1080p Latino – CMHDD pelicula latino, The 40 Year Old Virgin (2005) REMUX 1080p Latino – CMHDD 1 link mega, The 40 Year Old Virgin (2005) REMUX 1080p Latino – CMHDD 1 link google drive, The 40 Year Old Virgin (2005) REMUX 1080p Latino – CMHDD hd 1080p latino.
Comentarios 0