×

¿Problemas para descargar con Mozilla, EDGE? Deshabilita la opción "Abrir vinculos en una pestaña nueva" tal como lo muestra ésta imagen.

Tetris (2023) ATVP WEB-DL 1080p Latino

447 vistas

Información de Tetris (2023) ATVP WEB-DL 1080p Latino

Datos de la película

  • Calidad: 1080p
  • Audio: Español Latino AC3 5.1 WEB-DL - Ingles AC3 5.1 WEB-DL
  • Subtitulos: Español Latino SRT- FORZADOS SRT
  • Resolución: 1920x1080
  • Formato: MKV
  • Codec: H.264
  • Encoder: cinemaniahdd
  • Mediainfo: Clic para Mostrar Datos Ver
  •  

    Format                      : Matroska
    Format version              : Version 4
    File size                   : 9.56 GiB
    Duration                    : 1 h 57 min
    Overall bit rate            : 11.6 Mb/s
    Movie name                  : Tetris (2023) WEB-DL 1080p Latino - CMHDD
    Encoded date                : UTC 2024-02-11 21:59:35
    Writing application         : mkvmerge v47.0.0 ('Black Flag') 64-bit
    Writing library             : libebml v1.3.10 + libmatroska v1.5.2

    Video
    ID                          : 1
    Format                      : AVC
    Format/Info                 : Advanced Video Codec
    Format profile              : High@L4
    Format settings             : CABAC / 5 Ref Frames
    Format settings, CABAC      : Yes
    Format settings, Reference  : 5 frames
    Codec ID                    : V_MPEG4/ISO/AVC
    Duration                    : 1 h 57 min
    Bit rate                    : 10.1 Mb/s
    Width                       : 1 918 pixels
    Height                      : 802 pixels
    Display aspect ratio        : 2.40:1
    Frame rate mode             : Constant
    Frame rate                  : 23.976 (24000/1001) FPS
    Color space                 : YUV
    Chroma subsampling          : 4:2:0
    Bit depth                   : 8 bits
    Scan type                   : Progressive
    Bits/(Pixel*Frame)          : 0.273
    Stream size                 : 8.29 GiB (87%)
    Language                    : English
    Default                     : Yes
    Forced                      : No
    Color range                 : Limited
    Color primaries             : BT.709
    Transfer characteristics    : BT.709
    Matrix coefficients         : BT.709

    Audio #1
    ID                          : 2
    Format                      : E-AC-3 JOC
    Format/Info                 : Enhanced AC-3 with Joint Object Coding
    Commercial name             : Dolby Digital Plus with Dolby Atmos
    Codec ID                    : A_EAC3
    Duration                    : 1 h 57 min
    Bit rate mode               : Constant
    Bit rate                    : 768 kb/s
    Channel(s)                  : 6 channels
    Channel layout              : L R C LFE Ls Rs
    Sampling rate               : 48.0 kHz
    Frame rate                  : 31.250 FPS (1536 SPF)
    Compression mode            : Lossy
    Stream size                 : 647 MiB (7%)
    Language                    : Spanish
    Service kind                : Complete Main
    Default                     : Yes
    Forced                      : Yes
    Complexity index            : 16
    Number of dynamic objects   : 15
    Bed channel count           : 1 channel
    Bed channel configuration   : LFE

    Audio #2
    ID                          : 3
    Format                      : E-AC-3 JOC
    Format/Info                 : Enhanced AC-3 with Joint Object Coding
    Commercial name             : Dolby Digital Plus with Dolby Atmos
    Codec ID                    : A_EAC3
    Duration                    : 1 h 57 min
    Bit rate mode               : Constant
    Bit rate                    : 768 kb/s
    Channel(s)                  : 6 channels
    Channel layout              : L R C LFE Ls Rs
    Sampling rate               : 48.0 kHz
    Frame rate                  : 31.250 FPS (1536 SPF)
    Compression mode            : Lossy
    Stream size                 : 647 MiB (7%)
    Language                    : English
    Service kind                : Complete Main
    Default                     : No
    Forced                      : No
    Complexity index            : 16
    Number of dynamic objects   : 15
    Bed channel count           : 1 channel
    Bed channel configuration   : LFE

    Text #1
    ID                          : 4
    Format                      : UTF-8
    Codec ID                    : S_TEXT/UTF8
    Codec ID/Info               : UTF-8 Plain Text
    Duration                    : 1 h 53 min
    Bit rate                    : 10 b/s
    Frame rate                  : 0.047 FPS
    Count of elements           : 318
    Stream size                 : 8.68 KiB (0%)
    Title                       : Forzados
    Language                    : Spanish
    Default                     : Yes
    Forced                      : Yes

    Text #2
    ID                          : 5
    Format                      : UTF-8
    Codec ID                    : S_TEXT/UTF8
    Codec ID/Info               : UTF-8 Plain Text
    Duration                    : 1 h 56 min
    Bit rate                    : 64 b/s
    Frame rate                  : 0.232 FPS
    Count of elements           : 1624
    Stream size                 : 54.8 KiB (0%)
    Language                    : Spanish
    Default                     : No
    Forced                      : No

     

  • Peso: 9.56 GiB

Sinopsis

Basada en la historia real del comercial de videojuegos estadounidense Henk Rogers (Taron Egerton) y su descubrimiento del Tetris en 1988. Cuando se dispone a hacer que el juego sea disponible en el mundo, se mete en una peligrosa red de mentiras y corrupción que hay detrás de la Cortina de Hierro.

Ficha técnica

Video trailer de la película

Enlaces de descarga

Rip de Bluray

Descargar Tetris (2023) ATVP WEB-DL 1080p Latino




Aportes de DPeliculasHDmega la pass es:dpeliculashdmega.org Aportes de CinemaniaHD la pass es:cinemaniahdd.com Aportes recientes:cinemaniahdd.net
Guardado en : Drama , Historia

Películas relacionadas

descargar Tetris (2023) ATVP WEB-DL 1080p Latino 1080p 1080p gratis, Tetris (2023) ATVP WEB-DL 1080p Latino 1080p mega 1 link, Tetris (2023) ATVP WEB-DL 1080p Latino 1080p pelicula completa, descargar Tetris (2023) ATVP WEB-DL 1080p Latino 1080p gratis en mega.

Tetris (2023) ATVP WEB-DL 1080p Latino pelicula full hd, Tetris (2023) ATVP WEB-DL 1080p Latino mega latino, Tetris (2023) ATVP WEB-DL 1080p Latino 4k latino, Tetris (2023) ATVP WEB-DL 1080p Latino pelicula completa, Tetris (2023) ATVP WEB-DL 1080p Latino descargar gratis, descargar Tetris (2023) ATVP WEB-DL 1080p Latino pelicula latino, Tetris (2023) ATVP WEB-DL 1080p Latino 1 link mega, Tetris (2023) ATVP WEB-DL 1080p Latino 1 link google drive, Tetris (2023) ATVP WEB-DL 1080p Latino hd 1080p latino.
Comentarios 0