×

¿Problemas para descargar con Mozilla, EDGE? Deshabilita la opción "Abrir vinculos en una pestaña nueva" tal como lo muestra ésta imagen.

Terror en el Estudio 666 (2022) PLACEBO Full HD 1080p Latino

115 vistas

Información de Terror en el Estudio 666 (2022) PLACEBO Full HD 1080p Latino

Datos de la película

  • Calidad: Full 1080p
  • Audio: Español Latino AC3 5.1 WEB-DL - Ingles DTS 5.1 BLURAY
  • Subtitulos: Español Latino PGS - Ingles PGS
  • Resolución: 1920x1080p
  • Formato: MKV
  • Codec: H.264
  • Encoder: Melkor
  • Mediainfo: Clic para Mostrar Datos Ver
  • Terror en el Estudio 666 (2022) PLACEBO 1080p Latino.mkv
    Format                      : Matroska
    Format version              : Version 4
    File size                   : 6.50 GiB
    Duration                    : 1 h 46 min
    Overall bit rate            : 8 731 kb/s
    Movie name                  : Studio 666 (2022) CinemaniaHDD.Net
    Encoded date                : UTC 2022-08-21 05:24:34
    Writing application         : mkvmerge v56.1.0 ('My Friend') 64-bit
    Writing library             : libebml v1.4.2 + libmatroska v1.6.4
    Attachments                 : CINEMANIAHD.png

    Video
    ID                          : 1
    Format                      : AVC
    Format/Info                 : Advanced Video Codec
    Format profile              : High@L4.1
    Format settings             : CABAC / 4 Ref Frames
    Format settings, CABAC      : Yes
    Format settings, Reference  : 4 frames
    Codec ID                    : V_MPEG4/ISO/AVC
    Duration                    : 1 h 46 min
    Bit rate                    : 6 752 kb/s
    Width                       : 1 920 pixels
    Height                      : 1 080 pixels
    Display aspect ratio        : 16:9
    Frame rate mode             : Constant
    Frame rate                  : 23.976 (24000/1001) FPS
    Color space                 : YUV
    Chroma subsampling          : 4:2:0
    Bit depth                   : 8 bits
    Scan type                   : Progressive
    Bits/(Pixel*Frame)          : 0.136
    Stream size                 : 5.02 GiB (77%)
    Title                       : Full HD1080p [CinemaniaHDD]
    Writing library             : x264 core 163 r3059 b684ebe0
    Encoding settings           : cabac=1 / ref=4 / deblock=1:0:0 / analyse=0x3:0x133 / me=tesa / subme=11 / psy=1 / psy_rd=1.00:0.00 / mixed_ref=1 / me_range=24 / chroma_me=1 / trellis=2 / 8x8dct=1 / cqm=0 / deadzone=21,11 / fast_pskip=0 / chroma_qp_offset=-2 / threads=24 / lookahead_threads=6 / sliced_threads=0 / nr=0 / decimate=1 / interlaced=0 / bluray_compat=0 / constrained_intra=0 / bframes=16 / b_pyramid=2 / b_adapt=2 / b_bias=0 / direct=3 / weightb=1 / open_gop=0 / weightp=2 / keyint=240 / keyint_min=24 / scenecut=40 / intra_refresh=0 / rc_lookahead=60 / rc=crf / mbtree=1 / crf=19.0 / qcomp=0.60 / qpmin=0 / qpmax=69 / qpstep=4 / vbv_maxrate=62500 / vbv_bufsize=78125 / crf_max=0.0 / nal_hrd=none / filler=0 / ip_ratio=1.40 / aq=1:1.00
    Default                     : Yes
    Forced                      : Yes
    Color range                 : Limited
    Color primaries             : BT.709
    Transfer characteristics    : BT.709
    Matrix coefficients         : BT.709

    Audio #1
    ID                          : 2
    Format                      : AC-3
    Format/Info                 : Audio Coding 3
    Commercial name             : Dolby Digital
    Codec ID                    : A_AC3
    Duration                    : 1 h 46 min
    Bit rate mode               : Constant
    Bit rate                    : 448 kb/s
    Channel(s)                  : 6 channels
    Channel layout              : L R C LFE Ls Rs
    Sampling rate               : 48.0 kHz
    Frame rate                  : 31.250 FPS (1536 SPF)
    Compression mode            : Lossy
    Stream size                 : 341 MiB (5%)
    Title                       : Español Latino [CinemaniaHDD]
    Language                    : Spanish
    Service kind                : Complete Main
    Default                     : Yes
    Forced                      : Yes

    Audio #2
    ID                          : 3
    Format                      : DTS
    Format/Info                 : Digital Theater Systems
    Codec ID                    : A_DTS
    Duration                    : 1 h 46 min
    Bit rate mode               : Constant
    Bit rate                    : 1 509 kb/s
    Channel(s)                  : 6 channels
    Channel layout              : C L R Ls Rs LFE
    Sampling rate               : 48.0 kHz
    Frame rate                  : 93.750 FPS (512 SPF)
    Bit depth                   : 24 bits
    Compression mode            : Lossy
    Stream size                 : 1.12 GiB (17%)
    Title                       : Ingles [CinemaniaHDD]
    Language                    : English
    Default                     : No
    Forced                      : No

    Text #1
    ID                          : 4
    Format                      : PGS
    Muxing mode                 : zlib
    Codec ID                    : S_HDMV/PGS
    Codec ID/Info               : Picture based subtitle format used on BDs/HD-DVDs
    Duration                    : 1 h 44 min
    Bit rate                    : 25.1 kb/s
    Count of elements           : 1920
    Stream size                 : 18.8 MiB (0%)
    Title                       : Español-PGS [CinemaniaHDD]
    Language                    : Spanish
    Default                     : No
    Forced                      : No

    Text #2
    ID                          : 5
    Format                      : PGS
    Muxing mode                 : zlib
    Codec ID                    : S_HDMV/PGS
    Codec ID/Info               : Picture based subtitle format used on BDs/HD-DVDs
    Duration                    : 1 h 45 min
    Bit rate                    : 37.9 kb/s
    Count of elements           : 3052
    Stream size                 : 28.7 MiB (0%)
    Title                       : Ingles-PGS [CinemaniaHDD]
    Language                    : English
    Default                     : No
    Forced                      : No

    Text #3
    ID                          : 6
    Format                      : UTF-8
    Codec ID                    : S_TEXT/UTF8
    Codec ID/Info               : UTF-8 Plain Text
    Duration                    : 1 h 43 min
    Bit rate                    : 0 b/s
    Count of elements           : 10
    Stream size                 : 349 Bytes (0%)
    Title                       : Forzados-SRT [CinemaniaHDD]
    Language                    : Spanish
    Default                     : Yes
    Forced                      : Yes

    Text #4
    ID                          : 7
    Format                      : UTF-8
    Codec ID                    : S_TEXT/UTF8
    Codec ID/Info               : UTF-8 Plain Text
    Duration                    : 1 h 44 min
    Bit rate                    : 41 b/s
    Count of elements           : 959
    Stream size                 : 31.4 KiB (0%)
    Title                       : Español-SRT [CinemaniaHDD]
    Language                    : Spanish
    Default                     : No
    Forced                      : No

    Menu
    00:00:00.000                : Chapter 01
    00:04:18.967                : Chapter 02
    00:11:19.554                : Chapter 03
    00:15:08.199                : Chapter 04
    00:20:53.169                : Chapter 05
    00:25:52.176                : Chapter 06
    00:29:55.335                : Chapter 07
    00:36:41.449                : Chapter 08
    00:40:53.868                : Chapter 09
    00:45:43.991                : Chapter 10
    00:50:13.093                : Chapter 11
    00:56:05.821                : Chapter 12
    01:01:18.341                : Chapter 13
    01:06:26.691                : Chapter 14
    01:12:17.750                : Chapter 15
    01:17:52.918                : Chapter 16
    01:21:44.316                : Chapter 17
    01:27:38.962                : Chapter 18
    01:33:37.737                : Chapter 19
    01:41:36.465                : Chapter 20

  • Peso: 6.50 GiB

Sinopsis

Descargar Terror en el Estudio 666 (2022) PLACEBO Full HD 1080p Latino. La legendaria banda de rock Foo Fighters se muda a una mansión de Encino inmersa en la espantosa historia del rock and roll para grabar su muy esperado décimo álbum. Una vez en la casa, Dave Grohl se encuentra lidiando con fuerzas sobrenaturales que amenazan tanto la finalización del álbum como la vida de la banda.

Ficha técnica

Video trailer de la película

Enlaces de descarga

Rip de Bluray

Descargar Terror en el Estudio 666 (2022) PLACEBO Full HD 1080p Latino




Aportes de DPeliculasHDmega la pass es:dpeliculashdmega.org Aportes de CinemaniaHD la pass es:cinemaniahdd.com

Películas relacionadas

  • Corazón de tinta (2008) Full HD 1080p Latino

    Corazón de tinta (2008) Full HD 1080p Latino

    2008
    Corazón de tinta (2008) Full HD 1080p Latino

    1h 46m 2008

    Descargar Corazón de tinta (2008) Full HD 1080p Latino. Mortimer “Mo” Folchart y su hija de 12 años,...

    Director: Sharon Mansfield

    Género: Aventura

    Actores: Terry Cavanagh

  • Juego de espías (2001) Full HD 1080p Latino

    Juego de espías (2001) Full HD 1080p Latino

    2001
    Juego de espías (2001) Full HD 1080p Latino

    2h 6m 2001

    Descargar Juego de espías (2001) Full HD 1080p Latino. Corre el año 1991, y al veterano agente de la...

    Director: Tony Scott

    Género: Acción

    Actores: Zsolt Zágoni

  • Hombre de familia (2000) REMUX 1080p Latino

    Hombre de familia (2000) REMUX 1080p Latino

    2000
    Hombre de familia (2000) REMUX 1080p Latino

    2h 1m 2000

    Descargar Hombre de familia (2000) REMUX 1080p Latino. Jack Campbell es un egocéntrico broker de Wall...

    Director: Robert Schroer

    Género: Comedia

    Actores: Wass Stevens

  • Te Amo Brother (2009) REMUX 1080p Latino

    Te Amo Brother (2009) REMUX 1080p Latino

    2009
    Te Amo Brother (2009) REMUX 1080p Latino

    1h 45m 2009

    Descargar Te Amo Brother (2009) REMUX 1080p Latino. Peter Klaven (Paul Rudd) es un joven que vive muy...

    Director: Scott Robertson

    Género: Comedia

    Actores: Vicki Davis

descargar Terror en el Estudio 666 (2022) PLACEBO Full HD 1080p Latino Full 1080p 1080p gratis, Terror en el Estudio 666 (2022) PLACEBO Full HD 1080p Latino Full 1080p mega 1 link, Terror en el Estudio 666 (2022) PLACEBO Full HD 1080p Latino Full 1080p pelicula completa, descargar Terror en el Estudio 666 (2022) PLACEBO Full HD 1080p Latino Full 1080p gratis en mega.

Terror en el Estudio 666 (2022) PLACEBO Full HD 1080p Latino pelicula full hd, Terror en el Estudio 666 (2022) PLACEBO Full HD 1080p Latino mega latino, Terror en el Estudio 666 (2022) PLACEBO Full HD 1080p Latino 4k latino, Terror en el Estudio 666 (2022) PLACEBO Full HD 1080p Latino pelicula completa, Terror en el Estudio 666 (2022) PLACEBO Full HD 1080p Latino descargar gratis, descargar Terror en el Estudio 666 (2022) PLACEBO Full HD 1080p Latino pelicula latino, Terror en el Estudio 666 (2022) PLACEBO Full HD 1080p Latino 1 link mega, Terror en el Estudio 666 (2022) PLACEBO Full HD 1080p Latino 1 link google drive, Terror en el Estudio 666 (2022) PLACEBO Full HD 1080p Latino hd 1080p latino.
Comentarios 0