×

¿Problemas para descargar con Mozilla, EDGE? Deshabilita la opción "Abrir vinculos en una pestaña nueva" tal como lo muestra ésta imagen.

Terror En El Aire (2019) PLACEBO Full HD 1080p Latino

267 vistas

Información de Terror En El Aire (2019) PLACEBO Full HD 1080p Latino

Datos de la película

  • Calidad: Full 1080p
  • Audio: Se especifica abajo de la Sinopsis
  • Subtitulos: Español Latino SRT- FORZADOS SRT
  • Resolución: 1920x1080p
  • Formato: MKV
  • Codec: H.264
  • Encoder: Melkor
  • Mediainfo: Clic para Mostrar Datos Ver
  • Terror En El Aire (2019) PLACEBO 1080p Latino.mkv
    Format                      : Matroska
    Format version              : Version 4
    File size                   : 6.88 GiB
    Duration                    : 1 h 50 min
    Overall bit rate mode       : Variable
    Overall bit rate            : 8 906 kb/s
    Movie name                  : Zhong guo ji zhang: The Captain (2019) CinemaniaHDD.Net
    Encoded date                : UTC 2021-03-27 23:33:34
    Writing application         : mkvmerge v51.0.0 ('I Wish') 64-bit
    Writing library             : libebml v1.4.0 + libmatroska v1.6.2
    Attachments                 : CINEMANIAHD.png

    Video
    ID                          : 1
    Format                      : AVC
    Format/Info                 : Advanced Video Codec
    Format profile              : High@L4.1
    Format settings             : CABAC / 4 Ref Frames
    Format settings, CABAC      : Yes
    Format settings, Reference  : 4 frames
    Codec ID                    : V_MPEG4/ISO/AVC
    Duration                    : 1 h 50 min
    Bit rate                    : 6 201 kb/s
    Width                       : 1 920 pixels
    Height                      : 1 080 pixels
    Display aspect ratio        : 16:9
    Frame rate mode             : Constant
    Frame rate                  : 24.000 FPS
    Color space                 : YUV
    Chroma subsampling          : 4:2:0
    Bit depth                   : 8 bits
    Scan type                   : Progressive
    Bits/(Pixel*Frame)          : 0.125
    Stream size                 : 4.79 GiB (70%)
    Title                       : Full HD1080p [CinemaniaHDD]
    Writing library             : x264 core 157 r2935 545de2f
    Encoding settings           : cabac=1 / ref=4 / deblock=1:0:0 / analyse=0x3:0x133 / me=tesa / subme=11 / psy=1 / psy_rd=1.00:0.00 / mixed_ref=1 / me_range=24 / chroma_me=1 / trellis=2 / 8x8dct=1 / cqm=0 / deadzone=21,11 / fast_pskip=0 / chroma_qp_offset=-2 / threads=24 / lookahead_threads=6 / sliced_threads=0 / nr=0 / decimate=1 / interlaced=0 / bluray_compat=0 / constrained_intra=0 / bframes=16 / b_pyramid=2 / b_adapt=2 / b_bias=0 / direct=3 / weightb=1 / open_gop=0 / weightp=2 / keyint=240 / keyint_min=24 / scenecut=40 / intra_refresh=0 / rc_lookahead=60 / rc=crf / mbtree=1 / crf=19.0 / qcomp=0.60 / qpmin=0 / qpmax=69 / qpstep=4 / vbv_maxrate=62500 / vbv_bufsize=78125 / crf_max=0.0 / nal_hrd=none / filler=0 / ip_ratio=1.40 / aq=1:1.00
    Default                     : Yes
    Forced                      : Yes
    Color range                 : Limited
    Color primaries             : BT.709
    Transfer characteristics    : BT.709
    Matrix coefficients         : BT.709

    Audio #1
    ID                          : 2
    Format                      : AC-3
    Format/Info                 : Audio Coding 3
    Commercial name             : Dolby Digital
    Codec ID                    : A_AC3
    Duration                    : 1 h 50 min
    Bit rate mode               : Constant
    Bit rate                    : 256 kb/s
    Channel(s)                  : 2 channels
    Channel layout              : L R
    Sampling rate               : 48.0 kHz
    Frame rate                  : 31.250 FPS (1536 SPF)
    Compression mode            : Lossy
    Stream size                 : 203 MiB (3%)
    Title                       : Español Latino [CinemaniaHDD]
    Language                    : Spanish
    Service kind                : Complete Main
    Default                     : Yes
    Forced                      : Yes

    Audio #2
    ID                          : 3
    Format                      : DTS XLL
    Format/Info                 : Digital Theater Systems
    Commercial name             : DTS-HD Master Audio
    Codec ID                    : A_DTS
    Duration                    : 1 h 50 min
    Bit rate mode               : Variable
    Bit rate                    : 2 446 kb/s
    Channel(s)                  : 6 channels
    Channel layout              : C L R Ls Rs LFE
    Sampling rate               : 48.0 kHz
    Frame rate                  : 93.750 FPS (512 SPF)
    Bit depth                   : 16 bits
    Compression mode            : Lossless
    Stream size                 : 1.89 GiB (27%)
    Title                       : Chino [CinemaniaHDD]
    Language                    : Chinese
    Default                     : No
    Forced                      : No

    Text #1
    ID                          : 4
    Format                      : UTF-8
    Codec ID                    : S_TEXT/UTF8
    Codec ID/Info               : UTF-8 Plain Text
    Duration                    : 6 s 500 ms
    Bit rate                    : 49 b/s
    Count of elements           : 1
    Stream size                 : 40.0 Bytes (0%)
    Title                       : Forzados-SRT [CinemaniaHDD]
    Language                    : Spanish
    Default                     : Yes
    Forced                      : Yes

    Text #2
    ID                          : 5
    Format                      : UTF-8
    Codec ID                    : S_TEXT/UTF8
    Codec ID/Info               : UTF-8 Plain Text
    Duration                    : 1 h 40 min
    Bit rate                    : 49 b/s
    Count of elements           : 1103
    Stream size                 : 36.6 KiB (0%)
    Title                       : Español-SRT [CinemaniaHDD]
    Language                    : English
    Default                     : No
    Forced                      : No

    Text #3
    ID                          : 6
    Format                      : UTF-8
    Codec ID                    : S_TEXT/UTF8
    Codec ID/Info               : UTF-8 Plain Text
    Duration                    : 1 h 40 min
    Bit rate                    : 43 b/s
    Count of elements           : 1103
    Stream size                 : 32.1 KiB (0%)
    Title                       : Ingles-SRT [CinemaniaHDD]
    Language                    : English
    Default                     : No
    Forced                      : No

    Menu
    00:00:00.000                : en:Chapter 01
    00:08:24.250                : en:Chapter 02
    00:16:41.916                : en:Chapter 03
    00:24:33.500                : en:Chapter 04
    00:32:38.291                : en:Chapter 05
    00:41:12.583                : en:Chapter 06
    00:49:44.666                : en:Chapter 07
    00:58:55.458                : en:Chapter 08
    01:07:55.250                : en:Chapter 09
    01:15:32.875                : en:Chapter 10
    01:22:34.833                : en:Chapter 11
    01:31:05.458                : en:Chapter 12
    01:42:21.708                : en:Chapter 13

  • Peso: 6.88 GiB

Sinopsis

Descargar Terror En El Aire (2019) PLACEBO Full HD 1080p Latino. Basada en hechos reales, se centra en el incidente de mayo de 2018 en el que un avión de Sichuan Airlines sufrió un grave percance en la cabina estando en pleno vuelo a 30.000 pies de altura.

Español Latino AC3 2.0 WebDL – Chino DTS 5.1 Bluray

Ficha técnica

Video trailer de la película

Enlaces de descarga

Rip de Bluray

Descargar Terror En El Aire (2019) PLACEBO Full HD 1080p Latino




Aportes de DPeliculasHDmega la pass es:dpeliculashdmega.org Aportes de CinemaniaHD la pass es:cinemaniahdd.com

Películas relacionadas

descargar Terror En El Aire (2019) PLACEBO Full HD 1080p Latino Full 1080p 1080p gratis, Terror En El Aire (2019) PLACEBO Full HD 1080p Latino Full 1080p mega 1 link, Terror En El Aire (2019) PLACEBO Full HD 1080p Latino Full 1080p pelicula completa, descargar Terror En El Aire (2019) PLACEBO Full HD 1080p Latino Full 1080p gratis en mega.

Terror En El Aire (2019) PLACEBO Full HD 1080p Latino pelicula full hd, Terror En El Aire (2019) PLACEBO Full HD 1080p Latino mega latino, Terror En El Aire (2019) PLACEBO Full HD 1080p Latino 4k latino, Terror En El Aire (2019) PLACEBO Full HD 1080p Latino pelicula completa, Terror En El Aire (2019) PLACEBO Full HD 1080p Latino descargar gratis, descargar Terror En El Aire (2019) PLACEBO Full HD 1080p Latino pelicula latino, Terror En El Aire (2019) PLACEBO Full HD 1080p Latino 1 link mega, Terror En El Aire (2019) PLACEBO Full HD 1080p Latino 1 link google drive, Terror En El Aire (2019) PLACEBO Full HD 1080p Latino hd 1080p latino.
Comentarios 0