×

¿Problemas para descargar con Mozilla, EDGE? Deshabilita la opción "Abrir vinculos en una pestaña nueva" tal como lo muestra ésta imagen.

Mine 9: Terror Bajo Tierra (2019) HD 1080p Latino

11 vistas

Información de Mine 9: Terror Bajo Tierra (2019) HD 1080p Latino

Datos de la película

  • Calidad: 1080p
  • Audio: Español Latino AC3 5.1 WEB-DL - Ingles AC3 5.1 BLURAY
  • Subtitulos: Español Latino SRT- FORZADOS SRT
  • Resolución: 1920x1080p
  • Formato: MKV
  • Codec: H.264
  • Encoder: Melkor
  • Mediainfo: Clic para Mostrar Datos Ver
  • Mine 9. Terror Bajo Tierra (2019) HD 1080p Latino.mkv
    Format                      : Matroska
    Format version              : Version 4
    File size                   : 2.59 GiB
    Duration                    : 1 h 22 min
    Overall bit rate            : 4 470 kb/s
    Movie name                  : Mine 9 (2019) CinemaniaHDD.Net
    Encoded date                : UTC 2022-11-19 17:26:08
    Writing application         : mkvmerge v56.1.0 ('My Friend') 64-bit
    Writing library             : libebml v1.4.2 + libmatroska v1.6.4
    Attachments                 : CINEMANIAHD.png

    Video
    ID                          : 1
    Format                      : AVC
    Format/Info                 : Advanced Video Codec
    Format profile              : High@L4.1
    Format settings             : CABAC / 4 Ref Frames
    Format settings, CABAC      : Yes
    Format settings, Reference  : 4 frames
    Codec ID                    : V_MPEG4/ISO/AVC
    Duration                    : 1 h 22 min
    Bit rate                    : 3 500 kb/s
    Width                       : 1 920 pixels
    Height                      : 1 080 pixels
    Display aspect ratio        : 16:9
    Frame rate mode             : Constant
    Frame rate                  : 23.976 (24000/1001) FPS
    Color space                 : YUV
    Chroma subsampling          : 4:2:0
    Bit depth                   : 8 bits
    Scan type                   : Progressive
    Bits/(Pixel*Frame)          : 0.070
    Stream size                 : 1.96 GiB (76%)
    Title                       : HD1080p [CinemaniaHDD]
    Writing library             : x264 core 163 r3059 b684ebe0
    Encoding settings           : cabac=1 / ref=4 / deblock=1:-1:-1 / analyse=0x3:0x133 / me=umh / subme=9 / psy=1 / psy_rd=1.00:0.15 / mixed_ref=1 / me_range=16 / chroma_me=1 / trellis=2 / 8x8dct=1 / cqm=0 / deadzone=21,11 / fast_pskip=1 / chroma_qp_offset=-3 / threads=24 / lookahead_threads=2 / sliced_threads=0 / nr=0 / decimate=1 / interlaced=0 / bluray_compat=0 / constrained_intra=0 / bframes=3 / b_pyramid=2 / b_adapt=2 / b_bias=0 / direct=3 / weightb=1 / open_gop=0 / weightp=2 / keyint=240 / keyint_min=24 / scenecut=40 / intra_refresh=0 / rc_lookahead=60 / rc=abr / mbtree=1 / bitrate=3500 / ratetol=1.0 / qcomp=0.60 / qpmin=0 / qpmax=69 / qpstep=4 / vbv_maxrate=62500 / vbv_bufsize=78125 / nal_hrd=none / filler=0 / ip_ratio=1.40 / aq=1:1.00
    Default                     : Yes
    Forced                      : Yes
    Color range                 : Limited
    Color primaries             : BT.709
    Transfer characteristics    : BT.709
    Matrix coefficients         : BT.709

    Audio #1
    ID                          : 2
    Format                      : AC-3
    Format/Info                 : Audio Coding 3
    Commercial name             : Dolby Digital
    Codec ID                    : A_AC3
    Duration                    : 1 h 22 min
    Bit rate mode               : Constant
    Bit rate                    : 640 kb/s
    Channel(s)                  : 6 channels
    Channel layout              : L R C LFE Ls Rs
    Sampling rate               : 48.0 kHz
    Frame rate                  : 31.250 FPS (1536 SPF)
    Compression mode            : Lossy
    Delay relative to video     : -5 ms
    Stream size                 : 380 MiB (14%)
    Title                       : Español Latino [CinemaniaHDD]
    Language                    : Spanish
    Service kind                : Complete Main
    Default                     : Yes
    Forced                      : Yes

    Audio #2
    ID                          : 3
    Format                      : AC-3
    Format/Info                 : Audio Coding 3
    Commercial name             : Dolby Digital
    Codec ID                    : A_AC3
    Duration                    : 1 h 22 min
    Bit rate mode               : Constant
    Bit rate                    : 448 kb/s
    Channel(s)                  : 6 channels
    Channel layout              : L R C LFE Ls Rs
    Sampling rate               : 48.0 kHz
    Frame rate                  : 31.250 FPS (1536 SPF)
    Compression mode            : Lossy
    Delay relative to video     : -5 ms
    Stream size                 : 266 MiB (10%)
    Title                       : Ingles [CinemaniaHDD]
    Language                    : English
    Service kind                : Complete Main
    Default                     : No
    Forced                      : No

    Text #1
    ID                          : 4
    Format                      : UTF-8
    Codec ID                    : S_TEXT/UTF8
    Codec ID/Info               : UTF-8 Plain Text
    Duration                    : 9 min 58 s
    Bit rate                    : 6 b/s
    Count of elements           : 18
    Stream size                 : 507 Bytes (0%)
    Title                       : Forzados-SRT [CinemaniaHDD]
    Language                    : Spanish
    Default                     : Yes
    Forced                      : Yes

    Text #2
    ID                          : 5
    Format                      : UTF-8
    Codec ID                    : S_TEXT/UTF8
    Codec ID/Info               : UTF-8 Plain Text
    Duration                    : 1 h 21 min
    Bit rate                    : 42 b/s
    Count of elements           : 779
    Stream size                 : 25.4 KiB (0%)
    Title                       : Español-SRT [CinemaniaHDD]
    Language                    : Spanish
    Default                     : No
    Forced                      : No

    Menu
    00:00:00.000                : Chapter 1
    00:05:53.395                : Chapter 2
    00:09:16.222                : Chapter 3
    00:16:39.999                : Chapter 4
    00:23:23.736                : Chapter 5
    00:27:57.426                : Chapter 6
    00:35:39.346                : Chapter 7
    00:38:37.607                : Chapter 8
    00:42:51.527                : Chapter 9
    00:47:12.580                : Chapter 10
    00:53:46.682                : Chapter 11
    00:57:34.117                : Chapter 12
    01:04:07.969                : Chapter 13
    01:09:30.291                : Chapter 14
    01:13:25.192                : Chapter 15
    01:17:22.513                : Chapter 16

  • Peso: 2.59 GiB

Sinopsis

Descargar Mine 9: Terror Bajo Tierra (2019) HD 1080p Latino. A tres kilómetros dentro de la Tierra, nueve mineros de los Apalaches luchan por sobrevivir después de que una explosión de metano les deje con tan sólo una hora de oxígeno.

Ficha técnica

Video trailer de la película

Enlaces de descarga

Rip de Bluray

Descargar Mine 9: Terror Bajo Tierra (2019) HD 1080p Latino




Aportes de DPeliculasHDmega la pass es:dpeliculashdmega.org Aportes de CinemaniaHD la pass es:cinemaniahdd.com
Guardado en : Drama , HD 1080p , Suspenso

Películas relacionadas

descargar Mine 9: Terror Bajo Tierra (2019) HD 1080p Latino 1080p 1080p gratis, Mine 9: Terror Bajo Tierra (2019) HD 1080p Latino 1080p mega 1 link, Mine 9: Terror Bajo Tierra (2019) HD 1080p Latino 1080p pelicula completa, descargar Mine 9: Terror Bajo Tierra (2019) HD 1080p Latino 1080p gratis en mega.

Mine 9: Terror Bajo Tierra (2019) HD 1080p Latino pelicula full hd, Mine 9: Terror Bajo Tierra (2019) HD 1080p Latino mega latino, Mine 9: Terror Bajo Tierra (2019) HD 1080p Latino 4k latino, Mine 9: Terror Bajo Tierra (2019) HD 1080p Latino pelicula completa, Mine 9: Terror Bajo Tierra (2019) HD 1080p Latino descargar gratis, descargar Mine 9: Terror Bajo Tierra (2019) HD 1080p Latino pelicula latino, Mine 9: Terror Bajo Tierra (2019) HD 1080p Latino 1 link mega, Mine 9: Terror Bajo Tierra (2019) HD 1080p Latino 1 link google drive, Mine 9: Terror Bajo Tierra (2019) HD 1080p Latino hd 1080p latino.
Comentarios 0