×

¿Problemas para descargar con Mozilla, EDGE? Deshabilita la opción "Abrir vinculos en una pestaña nueva" tal como lo muestra ésta imagen.

Terror Bajo La Tierra 7 (2020) REMUX 1080p Latino

278 vistas

Información de Terror Bajo La Tierra 7 (2020) REMUX 1080p Latino

Datos de la película

  • Calidad: Full 1080p
  • Audio: Español Latino DTS 5.1 BLURAY - Ingles DTS-HD 5.1 BLURAY
  • Subtitulos: Español Latino PGS - Ingles PGS
  • Resolución: 1920x1080p
  • Formato: MKV
  • Codec: H.264
  • Encoder: Melkor
  • Mediainfo: Clic para Mostrar Datos Ver
  • Terror bajo la Tierra 7 (2020) REMUX 1080p Latino.mkv
    Format                      : Matroska
    Format version              : Version 4
    File size                   : 26.5 GiB
    Duration                    : 1 h 42 min
    Overall bit rate mode       : Variable
    Overall bit rate            : 37.0 Mb/s
    Movie name                  : Tremors Shrieker Island (2020) CinemaniaHDD.Net
    Encoded date                : UTC 2020-10-21 04:10:50
    Writing application         : mkvmerge v51.0.0 ('I Wish') 64-bit
    Writing library             : libebml v1.4.0 + libmatroska v1.6.2
    Attachments                 : CINEMANIAHD.png

    Video
    ID                          : 1
    ID in the original source m : 4113 (0x1011)
    Format                      : AVC
    Format/Info                 : Advanced Video Codec
    Format profile              : High@L4.1
    Format settings             : CABAC / 4 Ref Frames
    Format settings, CABAC      : Yes
    Format settings, Reference  : 4 frames
    Codec ID                    : V_MPEG4/ISO/AVC
    Duration                    : 1 h 42 min
    Bit rate mode               : Variable
    Bit rate                    : 32.2 Mb/s
    Maximum bit rate            : 36.0 Mb/s
    Width                       : 1 920 pixels
    Height                      : 1 080 pixels
    Display aspect ratio        : 16:9
    Frame rate mode             : Constant
    Frame rate                  : 23.976 (24000/1001) FPS
    Color space                 : YUV
    Chroma subsampling          : 4:2:0
    Bit depth                   : 8 bits
    Scan type                   : Progressive
    Bits/(Pixel*Frame)          : 0.647
    Stream size                 : 23.0 GiB (87%)
    Title                       : REMUX 1080p [CinemaniaHDD]
    Language                    : English
    Default                     : Yes
    Forced                      : No
    Original source medium      : Blu-ray

    Audio #1
    ID                          : 2
    ID in the original source m : 4353 (0x1101)
    Format                      : DTS
    Format/Info                 : Digital Theater Systems
    Codec ID                    : A_DTS
    Duration                    : 1 h 42 min
    Bit rate mode               : Constant
    Bit rate                    : 768 kb/s
    Channel(s)                  : 6 channels
    Channel layout              : C L R Ls Rs LFE
    Sampling rate               : 48.0 kHz
    Frame rate                  : 93.750 FPS (512 SPF)
    Bit depth                   : 24 bits
    Compression mode            : Lossy
    Stream size                 : 562 MiB (2%)
    Title                       : Español Latino [CinemaniaHDD]
    Language                    : Spanish
    Default                     : Yes
    Forced                      : No
    Original source medium      : Blu-ray

    Audio #2
    ID                          : 3
    ID in the original source m : 4352 (0x1100)
    Format                      : DTS XLL
    Format/Info                 : Digital Theater Systems
    Commercial name             : DTS-HD Master Audio
    Codec ID                    : A_DTS
    Duration                    : 1 h 42 min
    Bit rate mode               : Variable
    Bit rate                    : 4 087 kb/s
    Channel(s)                  : 6 channels
    Channel layout              : C L R Ls Rs LFE
    Sampling rate               : 48.0 kHz
    Frame rate                  : 93.750 FPS (512 SPF)
    Bit depth                   : 24 bits
    Compression mode            : Lossless
    Stream size                 : 2.92 GiB (11%)
    Title                       : Ingles [CinemaniaHDD]
    Language                    : English
    Default                     : No
    Forced                      : No
    Original source medium      : Blu-ray

    Text #1
    ID                          : 4
    ID in the original source m : 4611 (0x1203)
    Format                      : PGS
    Muxing mode                 : zlib
    Codec ID                    : S_HDMV/PGS
    Codec ID/Info               : Picture based subtitle format used on BDs/HD-DVDs
    Duration                    : 1 h 36 min
    Bit rate                    : 161 b/s
    Count of elements           : 14
    Stream size                 : 115 KiB (0%)
    Title                       : Forzados-PGS [CinemaniaHDD]
    Language                    : Spanish
    Default                     : Yes
    Forced                      : No
    Original source medium      : Blu-ray

    Text #2
    ID                          : 5
    ID in the original source m : 4609 (0x1201)
    Format                      : PGS
    Muxing mode                 : zlib
    Codec ID                    : S_HDMV/PGS
    Codec ID/Info               : Picture based subtitle format used on BDs/HD-DVDs
    Duration                    : 1 h 39 min
    Bit rate                    : 28.1 kb/s
    Count of elements           : 1990
    Stream size                 : 20.0 MiB (0%)
    Title                       : Español-PGS [CinemaniaHDD]
    Language                    : Spanish
    Default                     : No
    Forced                      : No
    Original source medium      : Blu-ray

    Text #3
    ID                          : 6
    ID in the original source m : 4608 (0x1200)
    Format                      : PGS
    Muxing mode                 : zlib
    Codec ID                    : S_HDMV/PGS
    Codec ID/Info               : Picture based subtitle format used on BDs/HD-DVDs
    Duration                    : 1 h 34 min
    Bit rate                    : 38.9 kb/s
    Count of elements           : 2619
    Stream size                 : 26.2 MiB (0%)
    Title                       : Ingles-PGS [CinemaniaHDD]
    Language                    : English
    Default                     : No
    Forced                      : No
    Original source medium      : Blu-ray

    Text #4
    ID                          : 7
    Format                      : UTF-8
    Codec ID                    : S_TEXT/UTF8
    Codec ID/Info               : UTF-8 Plain Text
    Duration                    : 36 min 54 s
    Bit rate                    : 0 b/s
    Count of elements           : 6
    Stream size                 : 147 Bytes (0%)
    Title                       : Forzados-SRT [CinemaniaHDD]
    Language                    : Spanish
    Default                     : No
    Forced                      : No

    Text #5
    ID                          : 8
    Format                      : UTF-8
    Codec ID                    : S_TEXT/UTF8
    Codec ID/Info               : UTF-8 Plain Text
    Duration                    : 1 h 36 min
    Bit rate                    : 46 b/s
    Count of elements           : 994
    Stream size                 : 32.6 KiB (0%)
    Title                       : Español-SRT [CinemaniaHDD]
    Language                    : Spanish
    Default                     : No
    Forced                      : No

    Menu
    00:00:00.000                : en:Chapter 01
    00:05:25.700                : en:Chapter 02
    00:09:35.825                : en:Chapter 03
    00:15:41.482                : en:Chapter 04
    00:20:10.792                : en:Chapter 05
    00:28:44.806                : en:Chapter 06
    00:32:48.800                : en:Chapter 07
    00:36:44.785                : en:Chapter 08
    00:40:42.523                : en:Chapter 09
    00:45:20.968                : en:Chapter 10
    00:50:04.459                : en:Chapter 11
    00:55:01.589                : en:Chapter 12
    01:00:17.488                : en:Chapter 13
    01:05:59.038                : en:Chapter 14
    01:10:24.553                : en:Chapter 15
    01:14:31.216                : en:Chapter 16
    01:22:49.172                : en:Chapter 17
    01:26:39.694                : en:Chapter 18
    01:29:45.755                : en:Chapter 19
    01:37:07.613                : en:Chapter 20

  • Peso: 26.5 GiB

Sinopsis

Descargar Terror Bajo La Tierra 7 (2020) REMUX 1080p Latino. Los graboides son llevados ilegalmente a un nuevo resort en una isla por un playboy rico como una forma peligrosa de caza de trofeos, y Burt Gummer interviene para salvar el día.

Ficha técnica

Video trailer de la película

Enlaces de descarga

Rip de Bluray

Descargar Terror Bajo La Tierra 7 (2020) REMUX 1080p Latino




Aportes de DPeliculasHDmega la pass es:dpeliculashdmega.org Aportes de CinemaniaHD la pass es:cinemaniahdd.com
Guardado en : Acción , Remux , Terror

Películas relacionadas

  • Wire Room (2022) HD 1080p Latino

    Wire Room (2022) HD 1080p Latino

    2022
    Wire Room (2022) HD 1080p Latino

    1h 37m 2022

    Descargar Wire Room (2022) HD 1080p Latino. Mientras está de servicio en la sala de cables, un agente...

    Director: Matt Eskandari

    Género: Acción

    Actores: Texas Battle

  • Wire Room (2022) PLACEBO Full HD 1080p Latino

    Wire Room (2022) PLACEBO Full HD 1080p Latino

    2022
    Wire Room (2022) PLACEBO Full HD 1080p Latino

    1h 37m 2022

    Descargar Wire Room (2022) PLACEBO Full HD 1080p Latino. Mientras está de servicio en la sala de cables,...

    Director: Matt Eskandari

    Género: Acción

    Actores: Texas Battle

  • Wire Room (2022) REMUX 1080p Latino

    Wire Room (2022) REMUX 1080p Latino

    2022
    Wire Room (2022) REMUX 1080p Latino

    1h 37m 2022

    Descargar Wire Room (2022) REMUX 1080p Latino. Mientras está de servicio en la sala de cables, un agente...

    Director: Matt Eskandari

    Género: Acción

    Actores: Texas Battle

  • Alarido (2022) HD 1080p Latino

    Alarido (2022) HD 1080p Latino

    2022
    Alarido (2022) HD 1080p Latino

    1h 29m 2022

    Descargar Alarido (2022) HD 1080p Latino. Una joven madre soltera es cautiva junto con sus dos hijos...

    Director: D.J. Caruso

    Género: HD 1080p

    Actores: Vincent Gallo

descargar Terror Bajo La Tierra 7 (2020) REMUX 1080p Latino Full 1080p 1080p gratis, Terror Bajo La Tierra 7 (2020) REMUX 1080p Latino Full 1080p mega 1 link, Terror Bajo La Tierra 7 (2020) REMUX 1080p Latino Full 1080p pelicula completa, descargar Terror Bajo La Tierra 7 (2020) REMUX 1080p Latino Full 1080p gratis en mega.

Terror Bajo La Tierra 7 (2020) REMUX 1080p Latino pelicula full hd, Terror Bajo La Tierra 7 (2020) REMUX 1080p Latino mega latino, Terror Bajo La Tierra 7 (2020) REMUX 1080p Latino 4k latino, Terror Bajo La Tierra 7 (2020) REMUX 1080p Latino pelicula completa, Terror Bajo La Tierra 7 (2020) REMUX 1080p Latino descargar gratis, descargar Terror Bajo La Tierra 7 (2020) REMUX 1080p Latino pelicula latino, Terror Bajo La Tierra 7 (2020) REMUX 1080p Latino 1 link mega, Terror Bajo La Tierra 7 (2020) REMUX 1080p Latino 1 link google drive, Terror Bajo La Tierra 7 (2020) REMUX 1080p Latino hd 1080p latino.
Comentarios 0