×

¿Problemas para descargar con Mozilla, EDGE? Deshabilita la opción "Abrir vinculos en una pestaña nueva" tal como lo muestra ésta imagen.

Terrifier 2 (2022) HD 1080p Latino

318 vistas

Información de Terrifier 2 (2022) HD 1080p Latino

Datos de la película

  • Calidad: 1080p
  • Audio: Español Latino AC3 5.1 WEB-DL - Ingles AC3 5.1 BLURAY
  • Subtitulos: Español Latino SRT- FORZADOS SRT
  • Resolución: 1920x1080p
  • Formato: MKV
  • Codec: H.264
  • Encoder: Melkor
  • Mediainfo: Clic para Mostrar Datos Ver
  • Terrifier 2 (2022) HD 1080p Latino.mkv
    Format                      : Matroska
    Format version              : Version 4
    File size                   : 4.21 GiB
    Duration                    : 2 h 18 min
    Overall bit rate            : 4 352 kb/s
    Movie name                  : Terrifier 2 (2022) CinemaniaHDD.Net
    Encoded date                : UTC 2023-03-18 16:15:45
    Writing application         : mkvmerge v56.1.0 ('My Friend') 64-bit
    Writing library             : libebml v1.4.2 + libmatroska v1.6.4
    Attachments                 : CINEMANIAHD.png
    Site                        : CinemaniaHDD.Net
    Uploader                    : Melkor

    Video
    ID                          : 1
    Format                      : AVC
    Format/Info                 : Advanced Video Codec
    Format profile              : High@L4.1
    Format settings             : CABAC / 4 Ref Frames
    Format settings, CABAC      : Yes
    Format settings, Reference  : 4 frames
    Codec ID                    : V_MPEG4/ISO/AVC
    Duration                    : 2 h 18 min
    Bit rate                    : 3 500 kb/s
    Width                       : 1 920 pixels
    Height                      : 1 080 pixels
    Display aspect ratio        : 16:9
    Frame rate mode             : Constant
    Frame rate                  : 23.976 (24000/1001) FPS
    Color space                 : YUV
    Chroma subsampling          : 4:2:0
    Bit depth                   : 8 bits
    Scan type                   : Progressive
    Bits/(Pixel*Frame)          : 0.070
    Stream size                 : 3.34 GiB (79%)
    Title                       : HD1080p [CinemaniaHDD]
    Writing library             : x264 core 163 r3059 b684ebe0
    Encoding settings           : cabac=1 / ref=4 / deblock=1:-1:-1 / analyse=0x3:0x133 / me=umh / subme=9 / psy=1 / psy_rd=1.00:0.15 / mixed_ref=1 / me_range=16 / chroma_me=1 / trellis=2 / 8x8dct=1 / cqm=0 / deadzone=21,11 / fast_pskip=1 / chroma_qp_offset=-3 / threads=24 / lookahead_threads=2 / sliced_threads=0 / nr=0 / decimate=1 / interlaced=0 / bluray_compat=0 / constrained_intra=0 / bframes=3 / b_pyramid=2 / b_adapt=2 / b_bias=0 / direct=3 / weightb=1 / open_gop=0 / weightp=2 / keyint=240 / keyint_min=24 / scenecut=40 / intra_refresh=0 / rc_lookahead=60 / rc=abr / mbtree=1 / bitrate=3500 / ratetol=1.0 / qcomp=0.60 / qpmin=0 / qpmax=69 / qpstep=4 / vbv_maxrate=62500 / vbv_bufsize=78125 / nal_hrd=none / filler=0 / ip_ratio=1.40 / aq=1:1.00
    Default                     : Yes
    Forced                      : Yes
    Color range                 : Limited
    Color primaries             : BT.709
    Transfer characteristics    : BT.709
    Matrix coefficients         : BT.709

    Audio #1
    ID                          : 2
    Format                      : AC-3
    Format/Info                 : Audio Coding 3
    Commercial name             : Dolby Digital
    Codec ID                    : A_AC3
    Duration                    : 2 h 18 min
    Bit rate mode               : Constant
    Bit rate                    : 448 kb/s
    Channel(s)                  : 6 channels
    Channel layout              : L R C LFE Ls Rs
    Sampling rate               : 48.0 kHz
    Frame rate                  : 31.250 FPS (1536 SPF)
    Compression mode            : Lossy
    Delay relative to video     : -5 ms
    Stream size                 : 444 MiB (10%)
    Title                       : Español Latino [CinemaniaHDD]
    Language                    : Spanish
    Service kind                : Complete Main
    Default                     : Yes
    Forced                      : Yes

    Audio #2
    ID                          : 3
    Format                      : AC-3
    Format/Info                 : Audio Coding 3
    Commercial name             : Dolby Digital
    Codec ID                    : A_AC3
    Duration                    : 2 h 18 min
    Bit rate mode               : Constant
    Bit rate                    : 448 kb/s
    Channel(s)                  : 6 channels
    Channel layout              : L R C LFE Ls Rs
    Sampling rate               : 48.0 kHz
    Frame rate                  : 31.250 FPS (1536 SPF)
    Compression mode            : Lossy
    Delay relative to video     : -5 ms
    Stream size                 : 444 MiB (10%)
    Title                       : Ingles [CinemaniaHDD]
    Language                    : English
    Service kind                : Complete Main
    Default                     : No
    Forced                      : No

    Text #1
    ID                          : 4
    Format                      : UTF-8
    Codec ID                    : S_TEXT/UTF8
    Codec ID/Info               : UTF-8 Plain Text
    Duration                    : 2 h 7 min
    Bit rate                    : 0 b/s
    Count of elements           : 23
    Stream size                 : 346 Bytes (0%)
    Title                       : Forzados-SRT [CinemaniaHDD]
    Language                    : Spanish
    Default                     : Yes
    Forced                      : Yes

    Text #2
    ID                          : 5
    Format                      : UTF-8
    Codec ID                    : S_TEXT/UTF8
    Codec ID/Info               : UTF-8 Plain Text
    Duration                    : 2 h 15 min
    Bit rate                    : 33 b/s
    Count of elements           : 1056
    Stream size                 : 33.2 KiB (0%)
    Title                       : Español-SRT [CinemaniaHDD]
    Language                    : Spanish
    Default                     : No
    Forced                      : No

    Text #3
    ID                          : 6
    Format                      : UTF-8
    Codec ID                    : S_TEXT/UTF8
    Codec ID/Info               : UTF-8 Plain Text
    Duration                    : 2 h 15 min
    Bit rate                    : 44 b/s
    Count of elements           : 1782
    Stream size                 : 44.1 KiB (0%)
    Title                       : Ingles [CinemaniaHDD]
    Language                    : English
    Default                     : No
    Forced                      : No

    Menu
    00:00:00.000                : Chapter 01
    00:27:19.512                : Chapter 02
    01:09:10.521                : Chapter 03
    01:28:37.687                : Chapter 04
    01:48:02.809                : Chapter 05
    02:10:46.004                : Chapter 06

  • Peso: 4.21 GiB

Sinopsis

Descargar Terrifier 2 (2022) HD 1080p Latino. Después de ser resucitado por una entidad siniestra, Art the Clown regresa al condado de Miles, donde debe cazar y destruir a una adolescente y a su hermano menor en la noche de Halloween.

Ficha técnica

Video trailer de la película

Enlaces de descarga

Rip de Bluray

Descargar Terrifier 2 (2022) HD 1080p Latino




Aportes de DPeliculasHDmega la pass es:dpeliculashdmega.org Aportes de CinemaniaHD la pass es:cinemaniahdd.com Aportes recientes:cinemaniahdd.net
Guardado en : HD 1080p , Terror

Películas relacionadas

  • En llamas (2023) HD 1080p Latino

    En llamas (2023) HD 1080p Latino

    2023
    En llamas (2023) HD 1080p Latino

    1h 17m 2023

    Descargar En llamas (2023) HD 1080p Latino. Una familia vive en una casa rodante en el bosque y de repente...

    Director: Peter Facinelli

    Género: Acción

    Actores: Ross McCall

  • Antes de conocernos (2023) HD 1080p Latino

    Antes de conocernos (2023) HD 1080p Latino

    2023
    Antes de conocernos (2023) HD 1080p Latino

    1h 38m 2023

    Descargar Antes de conocernos (2023) HD 1080p Latino. Jane y Will, dos adultos jóvenes, dedican tiempo...

    Director: Peter Hutchings

    Género: Comedia

    Actores: Ward Horton

  • VHS 85 (2023) AMZN WEB-DL 1080p Latino

    VHS 85 (2023) AMZN WEB-DL 1080p Latino

    2023
    VHS 85 (2023) AMZN WEB-DL 1080p Latino

    1h 50m 2023

    A través de un documental realizado para la televisión, se presentan cinco historias de terror de metraje...

    Director: Scott Derrickson

    Género: Ciencia ficción

    Actores: Vivian Morse

  • VHS 99 (2022) AMZN WEB-DL 1080p Latino

    VHS 99 (2022) AMZN WEB-DL 1080p Latino

    2022
    VHS 99 (2022) AMZN WEB-DL 1080p Latino

    1h 49m 2022

    V/H/S/99 se remonta a los últimos días analógicos del punk rock del VHS, mientras da un gran salto...

    Director: Vanessa Winter

    Género: Terror

    Actores: Verona Blue

descargar Terrifier 2 (2022) HD 1080p Latino 1080p 1080p gratis, Terrifier 2 (2022) HD 1080p Latino 1080p mega 1 link, Terrifier 2 (2022) HD 1080p Latino 1080p pelicula completa, descargar Terrifier 2 (2022) HD 1080p Latino 1080p gratis en mega.

Terrifier 2 (2022) HD 1080p Latino pelicula full hd, Terrifier 2 (2022) HD 1080p Latino mega latino, Terrifier 2 (2022) HD 1080p Latino 4k latino, Terrifier 2 (2022) HD 1080p Latino pelicula completa, Terrifier 2 (2022) HD 1080p Latino descargar gratis, descargar Terrifier 2 (2022) HD 1080p Latino pelicula latino, Terrifier 2 (2022) HD 1080p Latino 1 link mega, Terrifier 2 (2022) HD 1080p Latino 1 link google drive, Terrifier 2 (2022) HD 1080p Latino hd 1080p latino.
Comentarios 0