×

¿Problemas para descargar con Mozilla, EDGE? Deshabilita la opción "Abrir vinculos en una pestaña nueva" tal como lo muestra ésta imagen.

Terra Willy: Planeta desconocido (2019) 1080p Latino

1.383 vistas

Información de Terra Willy: Planeta desconocido (2019) 1080p Latino

Datos de la película

  • Calidad: 1080p
  • Audio: Español Latino AC3 5.1 iTUNES - Ingles AC3 5.1 BLURAY
  • Subtitulos: Español Latino SRT- FORZADOS SRT
  • Resolución: 1920x800
  • Formato: MKV
  • Codec: H.264
  • Encoder: cinemaniahdd
  • Mediainfo: Clic para Mostrar Datos Ver
  • Terra Willy - Planeta desconocido (2019) 1080p Latino.mkv
    Format                      : Matroska
    Format version              : Version 4
    File size                   : 2.71 GiB
    Duration                    : 1 h 30 min
    Overall bit rate            : 4 307 kb/s
    Movie name                  : Terra Willy - Planeta desconocido (2019) - CinemaniaHDD.Net
    Encoded date                : UTC 2019-10-08 23:37:20
    Writing application         : mkvmerge v38.0.0 ('The Silent Type') 64-bit
    Writing library             : libebml v1.3.9 + libmatroska v1.5.2

    Video
    ID                          : 1
    Format                      : AVC
    Format/Info                 : Advanced Video Codec
    Format profile              : Main@L4
    Format settings             : CABAC / 5 Ref Frames
    Format settings, CABAC      : Yes
    Format settings, ReFrames   : 5 frames
    Codec ID                    : V_MPEG4/ISO/AVC
    Duration                    : 1 h 30 min
    Bit rate                    : 3 500 kb/s
    Width                       : 1 920 pixels
    Height                      : 800 pixels
    Display aspect ratio        : 2.40:1
    Frame rate mode             : Constant
    Frame rate                  : 24.000 FPS
    Color space                 : YUV
    Chroma subsampling          : 4:2:0
    Bit depth                   : 8 bits
    Scan type                   : Progressive
    Bits/(Pixel*Frame)          : 0.095
    Stream size                 : 2.18 GiB (81%)
    Title                       : CinemaniaHDD
    Writing library             : x264 core 157 r2935 545de2f
    Encoding settings           : cabac=1 / ref=5 / deblock=1:0:0 / analyse=0x1:0x111 / me=hex / subme=8 / psy=1 / psy_rd=1.00:0.00 / mixed_ref=1 / me_range=16 / chroma_me=1 / trellis=2 / 8x8dct=0 / cqm=0 / deadzone=21,11 / fast_pskip=1 / chroma_qp_offset=-2 / threads=25 / lookahead_threads=4 / sliced_threads=0 / nr=0 / decimate=1 / interlaced=0 / bluray_compat=0 / constrained_intra=0 / bframes=3 / b_pyramid=2 / b_adapt=1 / b_bias=0 / direct=3 / weightb=1 / open_gop=0 / weightp=2 / keyint=240 / keyint_min=24 / scenecut=40 / intra_refresh=0 / rc_lookahead=50 / rc=abr / mbtree=1 / bitrate=3500 / ratetol=1.0 / qcomp=0.60 / qpmin=0 / qpmax=69 / qpstep=4 / vbv_maxrate=20000 / vbv_bufsize=25000 / nal_hrd=none / filler=0 / ip_ratio=1.40 / aq=1:1.00
    Default                     : Yes
    Forced                      : No
    Color range                 : Limited
    Color primaries             : BT.709
    Transfer characteristics    : BT.709
    Matrix coefficients         : BT.709

    Audio #1
    ID                          : 2
    Format                      : AC-3
    Format/Info                 : Audio Coding 3
    Commercial name             : Dolby Digital
    Codec ID                    : A_AC3
    Duration                    : 1 h 30 min
    Bit rate mode               : Constant
    Bit rate                    : 384 kb/s
    Channel(s)                  : 6 channels
    Channel layout              : L R C LFE Ls Rs
    Sampling rate               : 48.0 kHz
    Frame rate                  : 31.250 FPS (1536 SPF)
    Bit depth                   : 16 bits
    Compression mode            : Lossy
    Delay relative to video     : -5 ms
    Stream size                 : 247 MiB (9%)
    Title                       : Español latino [CinemaniaHDD]
    Language                    : Spanish
    Service kind                : Complete Main
    Default                     : Yes
    Forced                      : No

    Audio #2
    ID                          : 3
    Format                      : AC-3
    Format/Info                 : Audio Coding 3
    Commercial name             : Dolby Digital
    Codec ID                    : A_AC3
    Duration                    : 1 h 30 min
    Bit rate mode               : Constant
    Bit rate                    : 448 kb/s
    Channel(s)                  : 6 channels
    Channel layout              : L R C LFE Ls Rs
    Sampling rate               : 48.0 kHz
    Frame rate                  : 31.250 FPS (1536 SPF)
    Bit depth                   : 16 bits
    Compression mode            : Lossy
    Delay relative to video     : -5 ms
    Stream size                 : 289 MiB (10%)
    Title                       : Inglés [CinemaniaHDD]
    Language                    : English
    Service kind                : Complete Main
    Default                     : No
    Forced                      : No

    Text #1
    ID                          : 4
    Format                      : UTF-8
    Codec ID                    : S_TEXT/UTF8
    Codec ID/Info               : UTF-8 Plain Text
    Duration                    : 3 s 42 ms
    Bit rate                    : 49 b/s
    Count of elements           : 1
    Stream size                 : 19.0 Bytes (0%)
    Title                       : Forzados [CinemaniaHDD]
    Language                    : Spanish
    Default                     : Yes
    Forced                      : Yes

    Text #2
    ID                          : 5
    Format                      : UTF-8
    Codec ID                    : S_TEXT/UTF8
    Codec ID/Info               : UTF-8 Plain Text
    Duration                    : 1 h 23 min
    Bit rate                    : 33 b/s
    Count of elements           : 630
    Stream size                 : 20.4 KiB (0%)
    Title                       : Español latino [CinemaniaHDD]
    Language                    : Spanish
    Default                     : No
    Forced                      : No

    Menu
    00:00:00.000                : :00:00:00.000
    00:04:20.458                : :00:04:20.417
    00:07:44.500                : :00:07:44.417
    00:11:54.250                : :00:11:54.083
    00:16:28.375                : :00:16:28.208
    00:21:05.625                : :00:21:05.458
    00:25:25.958                : :00:25:25.750
    00:29:45.125                : :00:29:45.083
    00:34:37.375                : :00:34:37.250
    00:39:03.583                : :00:39:03.458
    00:43:16.417                : :00:43:16.417
    00:47:32.333                : :00:47:32.333
    00:51:55.500                : :00:51:55.417
    00:57:30.792                : :00:57:30.667
    01:01:45.375                : :01:01:45.208
    01:06:53.792                : :01:06:53.667
    01:11:19.208                : :01:11:19.042
    01:15:46.125                : :01:15:46.125
    01:20:40.833                : :01:20:40.667
    01:26:55.000                : :01:26:54.875

     

  • Peso: 2.71 GiB

Sinopsis

Tras la destrucción de su nave, el joven Willy se separa de sus padres con quienes viajó por el espacio. Su cápsula de rescate aterriza en un planeta salvaje e inexplorado. Con la ayuda de Buck, un robot de supervivencia, tendrá que esperar hasta la llegada de la misión de rescate. Mientras tanto, Willy, Buck y Flash, una criatura alienígena de la que se han hecho amigos, se dispondrán a conocer este planeta en el que han aterrizado por casualidad. Descubrirán su fauna, su flora … pero también sus peligros.

Ficha técnica

Video trailer de la película

Enlaces de descarga

Rip de Bluray

Descargar Terra Willy: Planeta desconocido (2019) 1080p Latino




Aportes de DPeliculasHDmega la pass es:dpeliculashdmega.org Aportes de CinemaniaHD la pass es:cinemaniahdd.com
Guardado en : Animación , Aventura , Comedia , Familia , HD 1080p

Películas relacionadas

  • Hot Summer Nights (2017) 4K-SDR WEB-DL 2160p Latino

    Hot Summer Nights (2017) 4K-SDR WEB-DL 2160p Latino

    2018
    Hot Summer Nights (2017) 4K-SDR WEB-DL 2160p Latino

    1h 47m 2018

    Daniel es un tímido adolescente que comienza a vender marihuana, entrando en un mundo tentador pero...

    Director: Stephen W. Moore

    Género: 4K HDR

    Actores: Zack Shires

  • Hot Summer Nights (2017) AMZN WEB-DL 1080p Latino

    Hot Summer Nights (2017) AMZN WEB-DL 1080p Latino

    2018
    Hot Summer Nights (2017) AMZN WEB-DL 1080p Latino

    1h 47m 2018

    Daniel es un tímido adolescente que comienza a vender marihuana, entrando en un mundo tentador pero...

    Director: Stephen W. Moore

    Género: Comedia

    Actores: Zack Shires

  • Wire Room (2022) HD 1080p Latino

    Wire Room (2022) HD 1080p Latino

    2022
    Wire Room (2022) HD 1080p Latino

    1h 37m 2022

    Descargar Wire Room (2022) HD 1080p Latino. Mientras está de servicio en la sala de cables, un agente...

    Director: Matt Eskandari

    Género: Acción

    Actores: Texas Battle

descargar Terra Willy: Planeta desconocido (2019) 1080p Latino 1080p 1080p gratis, Terra Willy: Planeta desconocido (2019) 1080p Latino 1080p mega 1 link, Terra Willy: Planeta desconocido (2019) 1080p Latino 1080p pelicula completa, descargar Terra Willy: Planeta desconocido (2019) 1080p Latino 1080p gratis en mega.

Terra Willy: Planeta desconocido (2019) 1080p Latino pelicula full hd, Terra Willy: Planeta desconocido (2019) 1080p Latino mega latino, Terra Willy: Planeta desconocido (2019) 1080p Latino 4k latino, Terra Willy: Planeta desconocido (2019) 1080p Latino pelicula completa, Terra Willy: Planeta desconocido (2019) 1080p Latino descargar gratis, descargar Terra Willy: Planeta desconocido (2019) 1080p Latino pelicula latino, Terra Willy: Planeta desconocido (2019) 1080p Latino 1 link mega, Terra Willy: Planeta desconocido (2019) 1080p Latino 1 link google drive, Terra Willy: Planeta desconocido (2019) 1080p Latino hd 1080p latino.
Comentarios 0