×

¿Problemas para descargar con Mozilla, EDGE? Deshabilita la opción "Abrir vinculos en una pestaña nueva" tal como lo muestra ésta imagen.

Terminator Salvation (2009) Director’s Cut REMUX 1080p Latino – CMHDD

260 vistas

Información de Terminator Salvation (2009) Director’s Cut REMUX 1080p Latino – CMHDD

Datos de la película

  • Calidad:
  • Audio: Español Latino AC3 5.1 BLURAY - Ingles DTS 5.1 BLURAY
  • Subtitulos: Español Latino PGS
  • Resolución: 19201080p
  • Formato: MKV
  • Codec: H.264
  • Encoder: Dracarys
  • Mediainfo: Clic para Mostrar Datos Ver
  • Format                      : Matroska
    Format version              : Version 4
    File size                   : 24.8 GiB
    Duration                    : 1 h 57 min
    Overall bit rate mode       : Variable
    Overall bit rate            : 30.2 Mb/s
    Movie name                  : Terminator Salvation (2009) Director’s Cut REMUX 1080p Latino - CMHDD
    Encoded date                : UTC 2023-10-09 20:20:11
    Writing application         : mkvmerge v47.0.0 ('Black Flag') 64-bit
    Writing library             : libebml v1.3.10 + libmatroska v1.5.2

    Video
    ID                          : 1
    Format                      : VC-1
    Format profile              : Advanced@L3
    Codec ID                    : V_MS/VFW/FOURCC / WVC1
    Codec ID/Hint               : Microsoft
    Duration                    : 1 h 57 min
    Bit rate                    : 25.6 Mb/s
    Width                       : 1 920 pixels
    Height                      : 1 080 pixels
    Display aspect ratio        : 16:9
    Frame rate mode             : Constant
    Frame rate                  : 23.976 (24000/1001) FPS
    Color space                 : YUV
    Chroma subsampling          : 4:2:0
    Bit depth                   : 8 bits
    Scan type                   : Progressive
    Compression mode            : Lossy
    Bits/(Pixel*Frame)          : 0.515
    Stream size                 : 21.0 GiB (85%)
    Language                    : English
    Default                     : Yes
    Forced                      : No

    Audio #1
    ID                          : 2
    Format                      : DTS XLL
    Format/Info                 : Digital Theater Systems
    Commercial name             : DTS-HD Master Audio
    Codec ID                    : A_DTS
    Duration                    : 1 h 57 min
    Bit rate mode               : Variable
    Bit rate                    : 4 148 kb/s
    Channel(s)                  : 6 channels
    Channel layout              : C L R Ls Rs LFE
    Sampling rate               : 48.0 kHz
    Frame rate                  : 93.750 FPS (512 SPF)
    Bit depth                   : 24 bits
    Compression mode            : Lossless
    Stream size                 : 3.40 GiB (14%)
    Language                    : English
    Default                     : No
    Forced                      : No

    Audio #2
    ID                          : 3
    Format                      : AC-3
    Format/Info                 : Audio Coding 3
    Commercial name             : Dolby Digital
    Codec ID                    : A_AC3
    Duration                    : 1 h 57 min
    Bit rate mode               : Constant
    Bit rate                    : 448 kb/s
    Channel(s)                  : 6 channels
    Channel layout              : L R C LFE Ls Rs
    Sampling rate               : 48.0 kHz
    Frame rate                  : 31.250 FPS (1536 SPF)
    Compression mode            : Lossy
    Stream size                 : 377 MiB (1%)
    Language                    : Spanish
    Service kind                : Complete Main
    Default                     : Yes
    Forced                      : No

    Text #1
    ID                          : 4
    Format                      : UTF-8
    Codec ID                    : S_TEXT/UTF8
    Codec ID/Info               : UTF-8 Plain Text
    Duration                    : 1 h 20 min
    Bit rate                    : 1 b/s
    Frame rate                  : 0.003 FPS
    Count of elements           : 15
    Stream size                 : 764 Bytes (0%)
    Language                    : Spanish
    Default                     : Yes
    Forced                      : No

    Text #2
    ID                          : 5
    Format                      : UTF-8
    Codec ID                    : S_TEXT/UTF8
    Codec ID/Info               : UTF-8 Plain Text
    Duration                    : 1 h 47 min
    Bit rate                    : 36 b/s
    Frame rate                  : 0.129 FPS
    Count of elements           : 835
    Stream size                 : 28.7 KiB (0%)
    Language                    : Spanish
    Default                     : No
    Forced                      : No

    Menu
    00:00:00.000                : en:Death Row/Credits
    00:05:26.367                : en:R&D Project
    00:10:22.455                : en:Survivors
    00:15:15.915                : en:Kill List
    00:18:44.456                : en:Out There Alone
    00:21:45.220                : en:What Happened Here?
    00:26:25.667                : en:You Are the Resistance
    00:31:28.511                : en:Drive to Stay Alive
    00:35:33.548                : en:Harvester Flareup
    00:41:16.098                : en:Moto-Terminator Mayhem
    00:44:45.391                : en:Evasive Maneuvers
    00:46:56.814                : en:On the Same Side
    00:53:37.881                : en:Not a Good Guy
    00:55:58.897                : en:Field Test
    00:58:27.504                : en:Machine Within
    01:04:54.223                : en:Identifications
    01:09:18.404                : en:Eyes on the Machine
    01:12:53.035                : en:Hydrobots: His Only Hope
    01:17:07.497                : en:We Are Not Machines
    01:21:58.330                : en:Infiltration in Sync
    01:25:21.116                : en:Serve a Purpose
    01:29:39.999                : en:John Connor's Killer
    01:33:06.998                : en:Nuclear Life Source
    01:37:12.201                : en:Intervention
    01:40:02.287                : en:Mortally Wounded
    01:44:01.068                : en:Second Chances
    01:49:28.186                : en:End Credits
    01:57:31.044                : en:Глава 28

     

  • Peso: 24.8 GiB

Sinopsis

Nueva entrega de la saga de Terminator, que transcurre en un post-apocalíptico 2018, tras el día del Juicio Final. John Connor es el hombre destinado a liderar la resistencia de los humanos contra Skynet y su ejército de Terminators. Pero el futuro en el que a Connor le enseñaron a creer se ve alterado en parte por la aparición de Marcus Wright, un extraño cuyo último recuerdo es haber estado en el corredor de la muerte, y que afirma haber estado con Kyle Reese, el padre de John. Connor debe decidir si Marcus ha sido enviado desde el futuro o rescatado del pasado, todo en una carrera contrareloj mientras la Resistencia prepara su ataque final contra el corazón del centro de operaciones de Skynet.

Ficha técnica

Video trailer de la película

Enlaces de descarga

Rip de Bluray

Descargar Terminator Salvation (2009) Director’s Cut REMUX 1080p Latino – CMHDD




Aportes de DPeliculasHDmega la pass es:dpeliculashdmega.org Aportes de CinemaniaHD la pass es:cinemaniahdd.com Aportes recientes:cinemaniahdd.net
Guardado en : Acción , Ciencia ficción , Suspenso

Películas relacionadas

  • Wolves (2022) AMZN WEB-DL 1080p Latino

    Wolves (2022) AMZN WEB-DL 1080p Latino

    2022
    Wolves (2022) AMZN WEB-DL 1080p Latino

    1h 43m 2022

    Un joven solitario se depara con una serie de crímenes sin resolver, que involucran animales mutilados...

    Director: Danny Dunlop

    Género: Crimen

    Actores: Rod Keith

descargar Terminator Salvation (2009) Director’s Cut REMUX 1080p Latino – CMHDD 1080p gratis, Terminator Salvation (2009) Director’s Cut REMUX 1080p Latino – CMHDD mega 1 link, Terminator Salvation (2009) Director’s Cut REMUX 1080p Latino – CMHDD pelicula completa, descargar Terminator Salvation (2009) Director’s Cut REMUX 1080p Latino – CMHDD gratis en mega.

Terminator Salvation (2009) Director’s Cut REMUX 1080p Latino – CMHDD pelicula full hd, Terminator Salvation (2009) Director’s Cut REMUX 1080p Latino – CMHDD mega latino, Terminator Salvation (2009) Director’s Cut REMUX 1080p Latino – CMHDD 4k latino, Terminator Salvation (2009) Director’s Cut REMUX 1080p Latino – CMHDD pelicula completa, Terminator Salvation (2009) Director’s Cut REMUX 1080p Latino – CMHDD descargar gratis, descargar Terminator Salvation (2009) Director’s Cut REMUX 1080p Latino – CMHDD pelicula latino, Terminator Salvation (2009) Director’s Cut REMUX 1080p Latino – CMHDD 1 link mega, Terminator Salvation (2009) Director’s Cut REMUX 1080p Latino – CMHDD 1 link google drive, Terminator Salvation (2009) Director’s Cut REMUX 1080p Latino – CMHDD hd 1080p latino.
Comentarios 0