×

¿Problemas para descargar con Mozilla, EDGE? Deshabilita la opción "Abrir vinculos en una pestaña nueva" tal como lo muestra ésta imagen.

Terminator Génesis (2015) REMUX 1080p Latino

2.024 vistas

Información de Terminator Génesis (2015) REMUX 1080p Latino

Datos de la película

  • Calidad: Full 1080p
  • Audio: Español Latino AC3 5.1 BLURAY - Ingles AC3 5.1 BLURAY
  • Subtitulos: Español Latino SRT- FORZADOS SRT
  • Resolución: 1920x1080p
  • Formato: MKV
  • Codec: H.264
  • Encoder: Dracarys
  • Mediainfo: Clic para Mostrar Datos Ver
  • Format                      : Matroska
    Format version              : Version 4
    File size                   : 26.5 GiB
    Duration                    : 2 h 5 min
    Overall bit rate mode       : Variable
    Overall bit rate            : 30.2 Mb/s
    Movie name                  : CinemaniaHDD.net
    Encoded date                : UTC 2019-09-27 00:32:24
    Writing application         : mkvmerge v35.0.0 ('All The Love In The World') 64-bit
    Writing library             : libebml v1.3.9 + libmatroska v1.5.2

    Video
    ID                          : 1
    Format                      : AVC
    Format/Info                 : Advanced Video Codec
    Format profile              : High@L4.1
    Format settings             : CABAC / 4 Ref Frames
    Format settings, CABAC      : Yes
    Format settings, ReFrames   : 4 frames
    Codec ID                    : V_MPEG4/ISO/AVC
    Duration                    : 2 h 5 min
    Bit rate mode               : Variable
    Bit rate                    : 24.4 Mb/s
    Maximum bit rate            : 32.0 Mb/s
    Width                       : 1 920 pixels
    Height                      : 1 080 pixels
    Display aspect ratio        : 16:9
    Frame rate mode             : Constant
    Frame rate                  : 23.976 (24000/1001) FPS
    Color space                 : YUV
    Chroma subsampling          : 4:2:0
    Bit depth                   : 8 bits
    Scan type                   : Progressive
    Bits/(Pixel*Frame)          : 0.491
    Stream size                 : 21.4 GiB (81%)
    Language                    : English
    Default                     : No
    Forced                      : No

    Audio #1
    ID                          : 2
    Format                      : AC-3
    Format/Info                 : Audio Coding 3
    Commercial name             : Dolby Digital
    Codec ID                    : A_AC3
    Duration                    : 2 h 5 min
    Bit rate mode               : Constant
    Bit rate                    : 640 kb/s
    Channel(s)                  : 6 channels
    Channel layout              : L R C LFE Ls Rs
    Sampling rate               : 48.0 kHz
    Frame rate                  : 31.250 FPS (1536 SPF)
    Bit depth                   : 16 bits
    Compression mode            : Lossy
    Stream size                 : 575 MiB (2%)
    Language                    : Spanish
    Service kind                : Complete Main
    Default                     : Yes
    Forced                      : No

    Audio #2
    ID                          : 3
    Format                      : MLP FBA 16-ch
    Format/Info                 : Meridian Lossless Packing FBA with 16-channel presentation
    Commercial name             : Dolby TrueHD with Dolby Atmos
    Codec ID                    : A_TRUEHD
    Duration                    : 2 h 5 min
    Bit rate mode               : Variable
    Bit rate                    : 4 443 kb/s
    Maximum bit rate            : 7 878 kb/s
    Channel(s)                  : 8 channels
    Channel layout              : L R C LFE Ls Rs Lb Rb
    Sampling rate               : 48.0 kHz
    Frame rate                  : 1 200.000 FPS (40 SPF)
    Compression mode            : Lossless
    Stream size                 : 3.90 GiB (15%)
    Language                    : English
    Default                     : No
    Forced                      : No
    Number of dynamic objects   : 11
    Bed channel count           : 1 channel
    Bed channel configuration   : LFE

    Audio #3
    ID                          : 4
    Format                      : AC-3
    Format/Info                 : Audio Coding 3
    Commercial name             : Dolby Digital
    Codec ID                    : A_AC3
    Duration                    : 2 h 5 min
    Bit rate mode               : Constant
    Bit rate                    : 640 kb/s
    Channel(s)                  : 6 channels
    Channel layout              : L R C LFE Ls Rs
    Sampling rate               : 48.0 kHz
    Frame rate                  : 31.250 FPS (1536 SPF)
    Bit depth                   : 16 bits
    Compression mode            : Lossy
    Stream size                 : 575 MiB (2%)
    Language                    : English
    Service kind                : Complete Main
    Default                     : No
    Forced                      : No

    Text #1
    ID                          : 5
    Format                      : PGS
    Muxing mode                 : zlib
    Codec ID                    : S_HDMV/PGS
    Codec ID/Info               : Picture based subtitle format used on BDs/HD-DVDs
    Duration                    : 1 h 56 min
    Bit rate                    : 28.8 kb/s
    Count of elements           : 2572
    Stream size                 : 24.1 MiB (0%)
    Language                    : Spanish
    Default                     : No
    Forced                      : No

    Text #2
    ID                          : 6
    Format                      : PGS
    Muxing mode                 : zlib
    Codec ID                    : S_HDMV/PGS
    Codec ID/Info               : Picture based subtitle format used on BDs/HD-DVDs
    Duration                    : 1 h 35 min
    Bit rate                    : 323 b/s
    Count of elements           : 24
    Stream size                 : 225 KiB (0%)
    Language                    : Spanish
    Default                     : No
    Forced                      : No

    Text #3
    ID                          : 7
    Format                      : UTF-8
    Codec ID                    : S_TEXT/UTF8
    Codec ID/Info               : UTF-8 Plain Text
    Duration                    : 1 h 56 min
    Bit rate                    : 46 b/s
    Count of elements           : 1285
    Stream size                 : 39.9 KiB (0%)
    Language                    : Spanish
    Default                     : No
    Forced                      : No

    Text #4
    ID                          : 8
    Format                      : UTF-8
    Codec ID                    : S_TEXT/UTF8
    Codec ID/Info               : UTF-8 Plain Text
    Duration                    : 1 h 35 min
    Bit rate                    : 0 b/s
    Count of elements           : 12
    Stream size                 : 281 Bytes (0%)
    Language                    : Spanish
    Default                     : Yes
    Forced                      : Yes

    Menu
    00:00:00.000                : en:Chapter 01
    00:07:40.334                : en:Chapter 02
    00:14:20.734                : en:Chapter 03
    00:20:31.563                : en:Chapter 04
    00:27:48.416                : en:Chapter 05
    00:34:54.801                : en:Chapter 06
    00:41:02.626                : en:Chapter 07
    00:46:28.786                : en:Chapter 08
    00:53:05.515                : en:Chapter 09
    01:01:00.239                : en:Chapter 10
    01:08:22.556                : en:Chapter 11
    01:14:43.812                : en:Chapter 12
    01:21:31.261                : en:Chapter 13
    01:31:01.706                : en:Chapter 14
    01:38:42.750                : en:Chapter 15
    01:45:41.084                : en:Chapter 16
    01:52:48.970                : en:Chapter 17
    01:58:00.114                : en:Chapter 18

  • Peso: 26.5 GiB

Sinopsis

Año 2032. La guerra del futuro se está librando y un grupo de rebeldes humanos tiene el sistema de inteligencia artificial Skynet contra las cuerdas. John Connor es el líder de la resistencia, y Kyle Reese es su fiel soldado, criado en las ruinas de una postapocalíptica California. Para salvaguardar el futuro, Connor envía a Reese a 1984 para salvar a su madre, Sarah de un Terminator programado para matarla con el fin de que no llegue a dar a luz a John. Pero lo que Reese encuentra en el otro lado no es como él esperaba.

RESUBIDO!!

Ficha técnica

Video trailer de la película

Enlaces de descarga

Rip de Bluray

Descargar Terminator Génesis (2015) REMUX 1080p Latino




Aportes de DPeliculasHDmega la pass es:dpeliculashdmega.org Aportes de CinemaniaHD la pass es:cinemaniahdd.com

Películas relacionadas

descargar Terminator Génesis (2015) REMUX 1080p Latino Full 1080p 1080p gratis, Terminator Génesis (2015) REMUX 1080p Latino Full 1080p mega 1 link, Terminator Génesis (2015) REMUX 1080p Latino Full 1080p pelicula completa, descargar Terminator Génesis (2015) REMUX 1080p Latino Full 1080p gratis en mega.

Terminator Génesis (2015) REMUX 1080p Latino pelicula full hd, Terminator Génesis (2015) REMUX 1080p Latino mega latino, Terminator Génesis (2015) REMUX 1080p Latino 4k latino, Terminator Génesis (2015) REMUX 1080p Latino pelicula completa, Terminator Génesis (2015) REMUX 1080p Latino descargar gratis, descargar Terminator Génesis (2015) REMUX 1080p Latino pelicula latino, Terminator Génesis (2015) REMUX 1080p Latino 1 link mega, Terminator Génesis (2015) REMUX 1080p Latino 1 link google drive, Terminator Génesis (2015) REMUX 1080p Latino hd 1080p latino.
Comentarios 1
  • perca7 - 28 septiembre, 2019

    Excelente me las llevo todas gracias son grandes