×

¿Problemas para descargar con Mozilla, EDGE? Deshabilita la opción "Abrir vinculos en una pestaña nueva" tal como lo muestra ésta imagen.

Terminator Génesis (2015) 1080p Latino

1.758 vistas

Información de Terminator Génesis (2015) 1080p Latino

Datos de la película

  • Calidad: 1080p
  • Audio: Español Latino AC3 5.1 BLURAY - Ingles AC3 5.1 BLURAY
  • Subtitulos: Español Latino SRT- FORZADOS SRT
  • Resolución: 1920x808p
  • Formato: MKV
  • Codec: H.264
  • Encoder: cinefiloCool
  • Mediainfo: Clic para Mostrar Datos Ver
  • Terminator 5 Genesis (2015) 1080p Latino-CMHDD.mkv
    Format                      : Matroska
    Format version              : Version 4
    File size                   : 4.03 GiB
    Duration                    : 2 h 5 min
    Overall bit rate            : 4 590 kb/s
    Movie name                  : CinemaniaHDD.net
    Encoded date                : UTC 2020-01-20 03:50:57
    Writing application         : mkvmerge v42.0.0 ('Overtime') 64-bit
    Writing library             : libebml v1.3.10 + libmatroska v1.5.2
    Attachments                 : CINEMANIAHD.png

    Video
    ID                          : 1
    Format                      : AVC
    Format/Info                 : Advanced Video Codec
    Format profile              : High@L4.1
    Format settings             : CABAC / 5 Ref Frames
    Format settings, CABAC      : Yes
    Format settings, ReFrames   : 5 frames
    Codec ID                    : V_MPEG4/ISO/AVC
    Duration                    : 2 h 5 min
    Bit rate                    : 3 500 kb/s
    Width                       : 1 920 pixels
    Height                      : 808 pixels
    Display aspect ratio        : 2.40:1
    Frame rate mode             : Constant
    Frame rate                  : 23.976 (24000/1001) FPS
    Color space                 : YUV
    Chroma subsampling          : 4:2:0
    Bit depth                   : 8 bits
    Scan type                   : Progressive
    Bits/(Pixel*Frame)          : 0.094
    Stream size                 : 3.07 GiB (76%)
    Title                       : HD1080p [Bluray]
    Writing library             : x264 core 157 r2935 545de2f
    Encoding settings           : cabac=1 / ref=5 / deblock=1:-2:-2 / analyse=0x3:0x133 / me=umh / subme=9 / psy=1 / psy_rd=1.00:0.25 / mixed_ref=1 / me_range=16 / chroma_me=1 / trellis=2 / 8x8dct=1 / cqm=0 / deadzone=6,6 / fast_pskip=1 / chroma_qp_offset=-4 / threads=25 / lookahead_threads=2 / sliced_threads=0 / nr=0 / decimate=0 / interlaced=0 / bluray_compat=0 / constrained_intra=0 / bframes=3 / b_pyramid=2 / b_adapt=2 / b_bias=0 / direct=3 / weightb=1 / open_gop=0 / weightp=2 / keyint=240 / keyint_min=24 / scenecut=40 / intra_refresh=0 / rc_lookahead=60 / rc=2pass / mbtree=1 / bitrate=3500 / ratetol=1.0 / qcomp=0.80 / qpmin=0 / qpmax=69 / qpstep=4 / cplxblur=20.0 / qblur=0.5 / vbv_maxrate=62500 / vbv_bufsize=78125 / nal_hrd=none / filler=0 / ip_ratio=1.10 / aq=1:0.50
    Default                     : Yes
    Forced                      : Yes
    Color range                 : Limited
    Color primaries             : BT.709
    Transfer characteristics    : BT.709
    Matrix coefficients         : BT.709

    Audio #1
    ID                          : 2
    Format                      : AC-3
    Format/Info                 : Audio Coding 3
    Commercial name             : Dolby Digital
    Codec ID                    : A_AC3
    Duration                    : 2 h 5 min
    Bit rate mode               : Constant
    Bit rate                    : 640 kb/s
    Channel(s)                  : 6 channels
    Channel layout              : L R C LFE Ls Rs
    Sampling rate               : 48.0 kHz
    Frame rate                  : 31.250 FPS (1536 SPF)
    Bit depth                   : 16 bits
    Compression mode            : Lossy
    Stream size                 : 575 MiB (14%)
    Title                       : AC3_5.1_Bluray_Esp
    Language                    : Spanish
    Service kind                : Complete Main
    Default                     : Yes
    Forced                      : Yes

    Audio #2
    ID                          : 3
    Format                      : AC-3
    Format/Info                 : Audio Coding 3
    Commercial name             : Dolby Digital
    Codec ID                    : A_AC3
    Duration                    : 2 h 5 min
    Bit rate mode               : Constant
    Bit rate                    : 448 kb/s
    Channel(s)                  : 6 channels
    Channel layout              : L R C LFE Ls Rs
    Sampling rate               : 48.0 kHz
    Frame rate                  : 31.250 FPS (1536 SPF)
    Bit depth                   : 16 bits
    Compression mode            : Lossy
    Delay relative to video     : -5 ms
    Stream size                 : 403 MiB (10%)
    Title                       : AC3_5.1_Bluray_Eng
    Language                    : English
    Service kind                : Complete Main
    Default                     : No
    Forced                      : No

    Text #1
    ID                          : 4
    Format                      : UTF-8
    Codec ID                    : S_TEXT/UTF8
    Codec ID/Info               : UTF-8 Plain Text
    Duration                    : 1 h 35 min
    Bit rate                    : 0 b/s
    Count of elements           : 12
    Stream size                 : 281 Bytes (0%)
    Title                       : Sub_Forzados
    Language                    : Spanish
    Default                     : Yes
    Forced                      : Yes

    Text #2
    ID                          : 5
    Format                      : UTF-8
    Codec ID                    : S_TEXT/UTF8
    Codec ID/Info               : UTF-8 Plain Text
    Duration                    : 1 h 56 min
    Bit rate                    : 46 b/s
    Count of elements           : 1285
    Stream size                 : 39.9 KiB (0%)
    Title                       : Sub_Esp
    Language                    : Spanish
    Default                     : No
    Forced                      : No

    Menu
    00:00:00.000                : :Chapter 1
    00:07:40.335                : :Chapter 2
    00:14:20.735                : :Chapter 3
    00:20:31.564                : :Chapter 4
    00:27:48.417                : :Chapter 5
    00:34:54.884                : :Chapter 6
    00:41:02.627                : :Chapter 7
    00:46:28.786                : :Chapter 8
    00:53:05.516                : :Chapter 9
    01:01:00.240                : :Chapter 10
    01:08:22.557                : :Chapter 11
    01:14:43.813                : :Chapter 12
    01:21:31.345                : :Chapter 13
    01:31:01.831                : :Chapter 14
    01:38:42.834                : :Chapter 15
    01:45:41.085                : :Chapter 16
    01:52:48.971                : :Chapter 17
    01:58:00.115                : :Chapter 18

  • Peso: 4.03 GiB

Sinopsis

Descargar Terminator Génesis (2015) 1080p Latino. Año 2032. La guerra del futuro se está librando y un grupo de rebeldes humanos tiene el sistema de inteligencia artificial Skynet contra las cuerdas. John Connor es el líder de la resistencia, y Kyle Reese es su fiel soldado, criado en las ruinas de una postapocalíptica California. Para salvaguardar el futuro, Connor envía a Reese a 1984 para salvar a su madre, Sarah de un Terminator programado para matarla con el fin de que no llegue a dar a luz a John. Pero lo que Reese encuentra en el otro lado no es como él esperaba.

Ficha técnica

Video trailer de la película

Enlaces de descarga

Rip de Bluray

Descargar Terminator Génesis (2015) 1080p Latino




Aportes de DPeliculasHDmega la pass es:dpeliculashdmega.org Aportes de CinemaniaHD la pass es:cinemaniahdd.com Aportes recientes:cinemaniahdd.net

Películas relacionadas

  • The Lego Movie (2014) REMUX 4K HDR Latino – CMHDD

    The Lego Movie (2014) REMUX 4K HDR Latino – CMHDD

    2014
    The Lego Movie (2014) REMUX 4K HDR Latino – CMHDD

    1h 40m 2014

    Película basada en los clásicos juguetes LEGO. Emmet, el protagonista de la película, trabaja como...

    Director: Vernessa Cook

    Género: Animación

    Actores: Will Forte

  • The Lego Movie (2014) REMUX 1080p Latino – CMHDD

    The Lego Movie (2014) REMUX 1080p Latino – CMHDD

    2014
    The Lego Movie (2014) REMUX 1080p Latino – CMHDD

    1h 40m 2014

    Película basada en los clásicos juguetes LEGO. Emmet, el protagonista de la película, trabaja como...

    Director: Vernessa Cook

    Género: Animación

    Actores: Will Forte

  • Familia Nacional (2023) WEB-DL 1080p Latino

    Familia Nacional (2023) WEB-DL 1080p Latino

    2023
    Familia Nacional (2023) WEB-DL 1080p Latino

    1h 43m 2023

    Descargar Familia Nacional (2023) WEB-DL 1080p Latino. Don Poli es el patriarca de una familia disfuncional...

    Director: Marcelo Tobar

    Género: Acción

    Actores: Tadeo Tovar

descargar Terminator Génesis (2015) 1080p Latino 1080p 1080p gratis, Terminator Génesis (2015) 1080p Latino 1080p mega 1 link, Terminator Génesis (2015) 1080p Latino 1080p pelicula completa, descargar Terminator Génesis (2015) 1080p Latino 1080p gratis en mega.

Terminator Génesis (2015) 1080p Latino pelicula full hd, Terminator Génesis (2015) 1080p Latino mega latino, Terminator Génesis (2015) 1080p Latino 4k latino, Terminator Génesis (2015) 1080p Latino pelicula completa, Terminator Génesis (2015) 1080p Latino descargar gratis, descargar Terminator Génesis (2015) 1080p Latino pelicula latino, Terminator Génesis (2015) 1080p Latino 1 link mega, Terminator Génesis (2015) 1080p Latino 1 link google drive, Terminator Génesis (2015) 1080p Latino hd 1080p latino.
Comentarios 0